[neoDESU] Encouragement of Climb: Next Summit [Season 4] [BD 1080p x265 HEVC AAC] Yama no Susume: Next Summit

Category:
Date:
2023-11-19 15:29 UTC
Submitter:
Seeders:
15
Information:
Leechers:
0
File size:
3.6 GiB
Completed:
536
Info hash:
e0a4ff76425d3ef566a8b720c25af17a52566d13
![](https://i.lensdump.com/i/6BKULK.png) *Come hang out in **[Discord](https://discord.gg/47Q7FdB54e)*** #### **[Encouragement of Climb: Next Summit [Season 4]](https://myanimelist.net/anime/48491/Yama_no_Susume__Next_Summit)** ▶️ **[Trailer](https://www.youtube.com/watch?v=emLErSD3k7I)** --- **Notes:** *for EP 2-12* . Resampled script . Adjusted styling to match [Cyan] . Inserted OP & ED of [Cyan] --- **Synopsis** While reminiscing about her journey so far, Aoi Yukimura finds herself eager to go mountaineering once more. A likely opportunity arises when Koharu Senjuin invites Aoi to check out the Mountaineering Club after school. As the head of the club, Koharu speaks enthusiastically of the activities she and the other members partake in, especially as they strive to reach the top in various competitions. Although impressed by the club's dedication to its goals, Aoi feels reluctant to join, preferring to learn and enjoy mountaineering at her own pace. Her experience during this brief visit, however, leaves her wondering why she climbs mountains in the first place. With the support of her friends, Aoi searches for the true motivation behind her hobby, all while continuing to train for the highly anticipated second trip to the summit of Mt. Fuji. ![](https://b.l3n.co/i/myAATi.png) --- **Source** 🗃️ Video and JPN Audio (JPN BDMV): **[[KoushinRip]](https://nyaa.si/view/1632521)** 🗃️ Subtitles: **[[Cyan]](https://nyaa.si/view/1626958)** **[[Zafkiel]](https://nyaa.si/view/1616123)** 💬 *Subtitles Info: [Cyan] EP 1 [Zafkiel] EP 2-12 [Me] Edits, see notes* *Thank you all for making this possible <3* --- **Media Info** ``` General Unique ID : 172250023392073755823950533954125217829 (0x819625D609E0EA4C29C7C74CF7F0C025) Complete name : Encouragement of Climb - S04E01.mkv Format : Matroska Format version : Version 4 File size : 391 MiB Duration : 24 min 1 s Overall bit rate : 2 279 kb/s Encoded date : UTC 2023-11-19 14:35:21 Writing application : mkvmerge v72.0.0 ('Minuano (Six-eight)') 64-bit Writing library : libebml v1.4.4 + libmatroska v1.7.1 / Lavf58.76.100 Attachments : ArchitectsDaughter.ttf / Complete in Him.ttf / CronosPro-Semibold.ttf / CronosPro-SemiboldIt.ttf / Brush Strokes.ttf / BRUSHED.TTF / BrushStroke-Regular.otf / BrushzerkerBB_Reg.otf / Carton_Six.ttf / CCRichardStarkingsBrush-Bold.otf / Chilanka-Regular.ttf / Conformity_Regular_HUN.ttf / DMSerifText-Regular.ttf / Dosis Regular.ttf / EIGHTYPERCENT.TTF / FONTIN_SANS.OTF / Fontin_Sans_BI.otf / Fontin_Sans_I.otf / Fontin_Sans_R.otf / FOT-OedKtr Std E.otf / G-OTF-KAntiqueStd-ANB.otf / grain.ttf / Grunge Strokes 01.ttf / HWYGWDE.TTF / Lato-Regular.ttf / LinotypeFinnegan Medium.ttf / NotoSans-Bold.ttf / NotoSans-Regular.ttf / SHINMARUGOBOLDWEB.TTF / square_comic.ttf / TimesDL Regular Italic.ttf / VAGROUNDEDBT-REGULAR.OTF / Agenda-Black.otf / AGRounded-Book.ttf / AlegreyaSans-Bold.otf / Andale Sans UI.ttf / ANTIQUESTD-ANDB.OTF / A-OTF-MaruFoPro-Bold.otf / A-OTF-MaruFoPro-Medium.otf / A-OTF-MaruFoPro-Regular.otf / A-OTF-MidashiMinPro-MA31.otf / Ardleys hand.ttf / arial.ttf / Aver Bold.ttf / Bell Gothic Black.ttf / BrokenChalk.ttf Video ID : 1 Format : HEVC Format/Info : High Efficiency Video Coding Format profile : Main 10@L4@High Codec ID : V_MPEGH/ISO/HEVC Duration : 24 min 1 s Bit rate : 1 754 kb/s Width : 1 920 pixels Height : 1 080 pixels Display aspect ratio : 16:9 Frame rate mode : Constant Frame rate : 23.976 (24000/1001) FPS Color space : YUV Chroma subsampling : 4:2:0 (Type 0) Bit depth : 10 bits Bits/(Pixel*Frame) : 0.035 Stream size : 301 MiB (77%) Writing library : x265 3.5+1-f0c1022b6:[Windows][GCC 10.2.0][64 bit] 10bit Encoding settings : cpuid=1111039 / frame-threads=5 / numa-pools=32 / wpp / no-pmode / no-pme / no-psnr / no-ssim / log-level=2 / input-csp=1 / input-res=1920x1080 / interlace=0 / total-frames=0 / level-idc=40 / high-tier=1 / uhd-bd=0 / ref=5 / no-allow-non-conformance / no-repeat-headers / annexb / no-aud / no-hrd / info / hash=0 / no-temporal-layers / open-gop / min-keyint=24 / keyint=240 / gop-lookahead=0 / bframes=16 / b-adapt=2 / b-pyramid / bframe-bias=0 / rc-lookahead=120 / lookahead-slices=4 / scenecut=40 / hist-scenecut=0 / radl=0 / no-splice / no-intra-refresh / ctu=64 / min-cu-size=8 / rect / no-amp / max-tu-size=32 / tu-inter-depth=1 / tu-intra-depth=1 / limit-tu=0 / rdoq-level=1 / dynamic-rd=0.00 / no-ssim-rd / signhide / no-tskip / nr-intra=0 / nr-inter=0 / no-constrained-intra / no-strong-intra-smoothing / max-merge=3 / limit-refs=3 / limit-modes / me=3 / subme=3 / merange=57 / temporal-mvp / no-frame-dup / no-hme / weightp / no-weightb / no-analyze-src-pics / deblock=-1:-1 / no-sao / no-sao-non-deblock / rd=4 / selective-sao=0 / no-early-skip / rskip / no-fast-intra / no-tskip-fast / no-cu-lossless / no-b-intra / no-splitrd-skip / rdpenalty=0 / psy-rd=2.00 / psy-rdoq=2.00 / no-rd-refine / no-lossless / cbqpoffs=0 / crqpoffs=0 / rc=crf / crf=22.5 / qcomp=0.60 / qpstep=4 / stats-write=0 / stats-read=0 / vbv-maxrate=30000 / vbv-bufsize=30000 / vbv-init=0.9 / min-vbv-fullness=50.0 / max-vbv-fullness=80.0 / crf-max=0.0 / crf-min=0.0 / ipratio=1.40 / pbratio=1.30 / aq-mode=3 / aq-strength=0.80 / cutree / zone-count=0 / no-strict-cbr / qg-size=32 / no-rc-grain / qpmax=69 / qpmin=0 / no-const-vbv / sar=1 / overscan=0 / videoformat=5 / range=0 / colorprim=1 / transfer=1 / colormatrix=1 / chromaloc=1 / chromaloc-top=0 / chromaloc-bottom=0 / display-window=0 / cll=0,0 / min-luma=0 / max-luma=1023 / log2-max-poc-lsb=8 / vui-timing-info / vui-hrd-info / slices=1 / no-opt-qp-pps / no-opt-ref-list-length-pps / no-multi-pass-opt-rps / scenecut-bias=0.05 / hist-threshold=0.03 / no-opt-cu-delta-qp / no-aq-motion / no-hdr10 / no-hdr10-opt / no-dhdr10-opt / no-idr-recovery-sei / analysis-reuse-level=0 / analysis-save-reuse-level=0 / analysis-load-reuse-level=0 / scale-factor=0 / refine-intra=0 / refine-inter=0 / refine-mv=1 / refine-ctu-distortion=0 / no-limit-sao / ctu-info=0 / no-lowpass-dct / refine-analysis-type=0 / copy-pic=1 / max-ausize-factor=1.0 / no-dynamic-refine / no-single-sei / no-hevc-aq / no-svt / no-field / qp-adaptation-range=1.00 / scenecut-aware-qp=0conformance-window-offsets / right=0 / bottom=0 / decoder-max-rate=0 / no-vbv-live-multi-pass Default : Yes Forced : No Color range : Limited Color primaries : BT.709 Transfer characteristics : BT.709 Matrix coefficients : BT.709 Audio ID : 2 Format : AAC LC Format/Info : Advanced Audio Codec Low Complexity Codec ID : A_AAC-2 Duration : 24 min 1 s Bit rate : 124 kb/s Channel(s) : 2 channels Channel layout : L R Sampling rate : 48.0 kHz Frame rate : 46.875 FPS (1024 SPF) Compression mode : Lossy Stream size : 21.2 MiB (5%) Title : Japanese Language : Japanese Default : Yes Forced : No Text ID : 3 Format : ASS Codec ID : S_TEXT/ASS Codec ID/Info : Advanced Sub Station Alpha Duration : 23 min 58 s Bit rate : 226 kb/s Frame rate : 30.682 FPS Count of elements : 44127 Compression mode : Lossless Stream size : 38.8 MiB (10%) Title : Dialogue Language : English Default : Yes Forced : No Menu 00:00:00.000 : :Intro 00:03:09.960 : :OP 00:04:40.030 : :Episode 00:22:30.010 : :ED ```

File list

  • [neoDESU] Encouragement of Climb [Season 4] [BD 1080p x265 HEVC AAC]
    • Encouragement of Climb - S04E01.mkv (391.5 MiB)
    • Encouragement of Climb - S04E02.mkv (298.9 MiB)
    • Encouragement of Climb - S04E03.mkv (298.1 MiB)
    • Encouragement of Climb - S04E04.mkv (323.1 MiB)
    • Encouragement of Climb - S04E05.mkv (295.4 MiB)
    • Encouragement of Climb - S04E06.mkv (305.9 MiB)
    • Encouragement of Climb - S04E07.mkv (255.4 MiB)
    • Encouragement of Climb - S04E08.mkv (301.2 MiB)
    • Encouragement of Climb - S04E09.mkv (375.0 MiB)
    • Encouragement of Climb - S04E10.mkv (264.2 MiB)
    • Encouragement of Climb - S04E11.mkv (304.6 MiB)
    • Encouragement of Climb - S04E12.mkv (257.0 MiB)