[MagicStar] Tatoe Anata wo Wasuretemo EP05 [WEBDL] [1080p] [JPN_SUB]

Category:
Date:
2023-11-19 15:19 UTC
Submitter:
Seeders:
1
Information:
Leechers:
0
File size:
621.6 MiB
Completed:
759
Info hash:
4a69824d4665c2e8fc365bc64ddd34a6f8457c8c
HD 1080p from TVer. Japanese subtitles added. Audio description added. ![alt text](https://i.ibb.co/QXj88Rb/SID0094262.jpg) ![alt text](https://i.ibb.co/Kw0vmLS/Magic-Star-Tatoe-Anata-wo-Wasuretemo-EP05-WEBDL-1080p-mkv.jpg) ``` General Unique ID : 338804754436488453083842631637982082826 (0xFEE36C14727CA3AB683D139360F9770A) Complete name : [MagicStar] Tatoe Anata wo Wasuretemo EP05 [WEBDL] [1080p].mkv Format : Matroska Format version : Version 4 File size : 622 MiB Duration : 45 min 9 s Overall bit rate mode : Variable Overall bit rate : 1 925 kb/s Frame rate : 29.970 FPS Encoded date : 2023-11-19 15:16:34 UTC Writing application : mkvmerge v50.0.0 ('Awakenings') 64-bit Writing library : libebml v1.4.0 + libmatroska v1.6.2 Video ID : 1 Format : AVC Format/Info : Advanced Video Codec Format profile : High@L4 Format settings : CABAC / 4 Ref Frames Format settings, CABAC : Yes Format settings, Reference fra : 4 frames Codec ID : V_MPEG4/ISO/AVC Duration : 45 min 8 s Bit rate mode : Variable Bit rate : 1 538 kb/s Maximum bit rate : 2 312 kb/s Width : 1 920 pixels Height : 1 080 pixels Display aspect ratio : 16:9 Frame rate mode : Constant Frame rate : 29.970 (29970/1000) FPS Original frame rate : 29.970 (30000/1001) FPS Color space : YUV Chroma subsampling : 4:2:0 Bit depth : 8 bits Scan type : Progressive Bits/(Pixel*Frame) : 0.025 Stream size : 497 MiB (80%) Default : Yes Forced : No Color range : Limited Color primaries : BT.709 Transfer characteristics : BT.709 Matrix coefficients : BT.709 Audio #1 ID : 2 Format : AAC LC Format/Info : Advanced Audio Codec Low Complexity Codec ID : A_AAC-2 Duration : 45 min 9 s Bit rate : 192 kb/s Channel(s) : 2 channels Channel layout : L R Sampling rate : 48.0 kHz Frame rate : 46.875 FPS (1024 SPF) Compression mode : Lossy Stream size : 62.0 MiB (10%) Title : 日本語 [オリジナル] Language : Japanese Default : Yes Forced : No Audio #2 ID : 3 Format : AAC LC Format/Info : Advanced Audio Codec Low Complexity Codec ID : A_AAC-2 Duration : 45 min 9 s Bit rate : 192 kb/s Channel(s) : 2 channels Channel layout : L R Sampling rate : 48.0 kHz Frame rate : 46.875 FPS (1024 SPF) Compression mode : Lossy Stream size : 62.0 MiB (10%) Title : 日本語 [解説放送音声] Language : Japanese Default : No Forced : No ```

File list