[MagicStar] Tasogare Yuusaku EP07 [WEBDL] [1080p] [JPN_SUB]

Category:
Date:
2023-11-19 13:00 UTC
Submitter:
Seeders:
1
Information:
Leechers:
0
File size:
952.0 MiB
Completed:
659
Info hash:
1b1f313e6c2a206dedd934033b9e39c1e37e13a3
HD 1080p from TVer. Japanese subtitles added. ![alt text](https://i.ibb.co/sCGfbSQ/b100c7f-w1.jpg) ![alt text](https://i.ibb.co/9shCxsd/Magic-Star-Tasogare-Yuusaku-EP07-WEBDL-1080p-mkv.jpg) ``` General Unique ID : 32337406047506929095557735859624876269 (0x1853F53683A0C35E8A778611822C18ED) Complete name : [MagicStar] Tasogare Yuusaku EP07 [WEBDL] [1080p].mkv Format : Matroska Format version : Version 4 File size : 952 MiB Duration : 46 min 8 s Overall bit rate mode : Variable Overall bit rate : 2 885 kb/s Frame rate : 29.970 FPS Encoded date : 2023-11-18 21:32:01 UTC Writing application : mkvmerge v50.0.0 ('Awakenings') 64-bit Writing library : libebml v1.4.0 + libmatroska v1.6.2 Video ID : 1 Format : AVC Format/Info : Advanced Video Codec Format profile : High@L4 Format settings : CABAC / 4 Ref Frames Format settings, CABAC : Yes Format settings, Reference fra : 4 frames Codec ID : V_MPEG4/ISO/AVC Duration : 46 min 8 s Bit rate mode : Variable Bit rate : 2 691 kb/s Maximum bit rate : 4 045 kb/s Width : 1 920 pixels Height : 1 080 pixels Display aspect ratio : 16:9 Frame rate mode : Constant Frame rate : 29.970 (29970/1000) FPS Original frame rate : 29.970 (30000/1001) FPS Color space : YUV Chroma subsampling : 4:2:0 Bit depth : 8 bits Scan type : Progressive Bits/(Pixel*Frame) : 0.043 Stream size : 888 MiB (93%) Default : Yes Forced : No Color range : Limited Color primaries : BT.709 Transfer characteristics : BT.709 Matrix coefficients : BT.709 Audio ID : 2 Format : AAC LC Format/Info : Advanced Audio Codec Low Complexity Codec ID : A_AAC-2 Duration : 46 min 8 s Bit rate : 192 kb/s Channel(s) : 2 channels Channel layout : L R Sampling rate : 48.0 kHz Frame rate : 46.875 FPS (1024 SPF) Compression mode : Lossy Stream size : 63.3 MiB (7%) Title : 日本語 [オリジナル] Language : Japanese Default : Yes Forced : No ```

File list