[MagicStar] Himitsu wo Motta Shounentachi EP07 [WEBDL] [1080p]

Category:
Date:
2023-11-19 05:41 UTC
Submitter:
Seeders:
1
File size:
427.0 MiB
Completed:
391
Info hash:
ea9ed2d8107be0272ec64c8061d600df0e734744
HD 1080p from TVer. ![alt text](https://i.ibb.co/HTvQX2g/e7754652-a131-4f83-a52b-cb7d1790e33ab.jpg) ![alt text](https://i.ibb.co/QpbP8bt/Magic-Star-Himitsu-wo-Motta-Shounentachi-EP07-WEBDL-1080p-mkv.jpg) ``` General Unique ID : 110053058062764985447289346783522394715 (0x52CB72B0177BDCA4A70F5655E1FD125B) Complete name : [MagicStar] Himitsu wo Motta Shounentachi EP07 [WEBDL] [1080p].mkv Format : Matroska Format version : Version 4 File size : 427 MiB Duration : 22 min 20 s Overall bit rate : 2 673 kb/s Frame rate : 29.970 FPS Encoded date : 2023-11-18 21:30:49 UTC Writing application : mkvmerge v50.0.0 ('Awakenings') 64-bit Writing library : libebml v1.4.0 + libmatroska v1.6.2 Video ID : 1 Format : AVC Format/Info : Advanced Video Codec Format profile : High@L4 Format settings : CABAC / 4 Ref Frames Format settings, CABAC : Yes Format settings, Reference fra : 4 frames Codec ID : V_MPEG4/ISO/AVC Duration : 22 min 19 s Bit rate : 2 479 kb/s Width : 1 920 pixels Height : 1 080 pixels Display aspect ratio : 16:9 Frame rate mode : Constant Frame rate : 29.970 (29970/1000) FPS Original frame rate : 29.970 (30000/1001) FPS Color space : YUV Chroma subsampling : 4:2:0 Bit depth : 8 bits Scan type : Progressive Bits/(Pixel*Frame) : 0.040 Stream size : 396 MiB (93%) Default : Yes Forced : No Color range : Limited Color primaries : BT.709 Transfer characteristics : BT.709 Matrix coefficients : BT.709 Audio ID : 2 Format : AAC LC Format/Info : Advanced Audio Codec Low Complexity Codec ID : A_AAC-2 Duration : 22 min 20 s Bit rate : 192 kb/s Channel(s) : 2 channels Channel layout : L R Sampling rate : 48.0 kHz Frame rate : 46.875 FPS (1024 SPF) Compression mode : Lossy Stream size : 30.7 MiB (7%) Title : 日本語 [オリジナル] Language : Japanese Default : Yes Forced : No ```

File list