[neoDESU] [v2] The Dangers in My Heart [Season 1] [BD 1080p x265 HEVC OPUS AAC] [Dual Audio] Boku no Kokoro no Yabai Yatsu

Category:
Date:
2023-11-14 10:27 UTC
Submitter:
Seeders:
43
Information:
Leechers:
1
File size:
1.9 GiB
Completed:
1972
Info hash:
1d6ffedade608f5678e3235f0d56c44a2073e229
![](https://i.lensdump.com/i/6BKULK.png) *Come hang out in **[Discord](https://discord.gg/47Q7FdB54e)*** #### **[The Dangers in My Heart [Season 1]](https://myanimelist.net/anime/52578/Boku_no_Kokoro_no_Yabai_Yatsu)** ▶️ **[Trailer](https://www.youtube.com/watch?v=x-cTWEpQu_A)** --- **Notes:** . Unified dialogue fonts and styling [v2] Changelog . Used [Bokuyaba] for EP 4-5 which I overlooked before and unified all dialogue fonts and styling *. Putting this out instead of waiting for [Bokuyaba] because I'd like to watch this right now. Might update later down the line.* --- **Synopsis** Kyoutarou Ichikawa may look like a shy and reserved middle school student, but deep within his heart is a bloodthirsty killer. His ultimate desire is to see his classmate Anna Yamada's beautiful face writhing in pain before he ends her life. But this fantasy may never come to fruition, as Ichikawa starts to see an entirely different side to Yamada. Often seeking refuge in the library, Ichikawa frequently runs into Yamada. It is during these encounters that Ichikawa realizes his model classmate is actually an airhead who can never read the room. As they spend more time together, the boy cannot help but feel not only a sense of endearment toward the very girl he wishes to murder but also a desire to protect her at all costs. Is it possible that this sudden change in Ichikawa's perspective could lead to something more? ![](https://c.l3n.co/i/mYrYje.png) --- **Language Options** I included two simple scripts that you can apply to these files to do the following (Windows only): 1. Make [Single Audio] Japanese: Throws out *English audio* and *Signs&Songs subtitles* tracks 2. Make [Single Audio] English: Throws out *Japanese audio* and *Dialogue subtitles* tracks To apply these put all the video files into the *Language Options* folder and run the .bat file. *Don't combine them and only use them once together with the base files.* --- **Source** 🗃️ Video and JPN Audio (JPN BDMV): **[Ronny]** 🗃️ ENG Audio (WEB): **[[Yameii]](https://nyaa.si/view/1708821)** 🗃️ Subtitles: **[[Cyan]](https://nyaa.si/view/1682257)** **[[Bokuyaba]](https://nyaa.si/view/1720311)** **[[Okay-Subs]](https://nyaa.si/view/1730297)** 💬 *Subtitles Info: [Cyan] EP 1-3 [Bokuyaba] EP 4-5 [Okay-Subs] EP 6-12* *Thank you all for making this possible <3* --- **Media Info** 🆔 **[Full Mediainfo incl. Encoder Settings](https://pastebin.com/TYYXhQTR)** ``` General Unique ID : 255101152087023871748053151335351213788 (0xBFEAB1DC21F77B012FFA830578825EDC) Complete name : The Dangers in My Heart - S01E01.mkv Format : Matroska Format version : Version 4 File size : 192 MiB Duration : 23 min 5 s Overall bit rate : 1 161 kb/s Encoded date : UTC 2023-11-13 16:01:01 Writing application : mkvmerge v72.0.0 ('Minuano (Six-eight)') 64-bit Writing library : libebml v1.4.4 + libmatroska v1.7.1 Attachments : Marker Felt Thin.ttf / Modest Felt.otf / sudbury_book.ttf / SWZ721K.TTF / timesbd.ttf / VAGRounded BT.ttf / VAGRounded-Regular.ttf / ariblk.ttf / Blokletters-Balpen.ttf / Complete_in_Him.ttf / Denne Marker.ttf / EBGaramond-Regular.ttf / ForoSans-Bold.otf / FOT-TelopMinProStrp-H.ttf / JMHTYPEWRITERSANS-BOLD.OTF / leelauib.ttf / LT_3 PL.ttf Video ID : 1 Format : HEVC Format/Info : High Efficiency Video Coding Format profile : Main 10@L4@High Codec ID : V_MPEGH/ISO/HEVC Duration : 23 min 5 s Bit rate : 845 kb/s Width : 1 920 pixels Height : 1 080 pixels Display aspect ratio : 16:9 Frame rate mode : Constant Frame rate : 23.976 (24000/1001) FPS Color space : YUV Chroma subsampling : 4:2:0 Bit depth : 10 bits Bits/(Pixel*Frame) : 0.017 Stream size : 139 MiB (73%) Writing library : x265 3.5+37+12-4e46995bc:[Windows][MSVC 1931][64 bit] 10bit Encoding settings : <Check Link Above> Default : Yes Forced : No Audio #1 ID : 2 Format : AAC LC Format/Info : Advanced Audio Codec Low Complexity Codec ID : A_AAC-2 Duration : 23 min 5 s Bit rate : 159 kb/s Channel(s) : 2 channels Channel layout : L R Sampling rate : 48.0 kHz Frame rate : 46.875 FPS (1024 SPF) Compression mode : Lossy Stream size : 26.3 MiB (14%) Title : English Language : English Default : Yes Forced : No Audio #2 ID : 3 Format : Opus Codec ID : A_OPUS Duration : 23 min 5 s Bit rate : 123 kb/s Channel(s) : 2 channels Channel layout : L R Sampling rate : 48.0 kHz Frame rate : 50.000 FPS (960 SPF) Bit depth : 32 bits Compression mode : Lossy Stream size : 20.2 MiB (11%) Title : Japanese Language : Japanese Default : No Forced : No Text #1 ID : 4 Format : ASS Codec ID : S_TEXT/ASS Codec ID/Info : Advanced Sub Station Alpha Duration : 23 min 1 s Bit rate : 5 252 b/s Frame rate : 4.404 FPS Count of elements : 6085 Compression mode : Lossless Stream size : 886 KiB (0%) Title : Signs & Songs Language : English Default : No Forced : Yes Text #2 ID : 5 Format : ASS Codec ID : S_TEXT/ASS Codec ID/Info : Advanced Sub Station Alpha Duration : 23 min 2 s Bit rate : 5 372 b/s Frame rate : 4.638 FPS Count of elements : 6414 Compression mode : Lossless Stream size : 907 KiB (0%) Title : Dialogue Language : English Default : Yes Forced : No Menu 00:00:00.000 : :Intro 00:01:50.010 : :Episode 00:21:33.940 : :ED ```

File list

  • [neoDESU] [v2] The Dangers in My Heart [Season 1] [BD 1080p x265 HEVC OPUS AAC] [Dual Audio]
    • Language Options
      • 1. Make [Single Audio] English.bat (254 Bytes)
      • 2. Make [Single Audio] Japanese.bat (254 Bytes)
      • mkvmerge.exe (9.6 MiB)
      • readme.txt (511 Bytes)
    • The Dangers in My Heart - S01E01.mkv (191.9 MiB)
    • The Dangers in My Heart - S01E02.mkv (176.8 MiB)
    • The Dangers in My Heart - S01E03.mkv (139.1 MiB)
    • The Dangers in My Heart - S01E04.mkv (169.8 MiB)
    • The Dangers in My Heart - S01E05.mkv (172.6 MiB)
    • The Dangers in My Heart - S01E06.mkv (137.7 MiB)
    • The Dangers in My Heart - S01E07.mkv (157.6 MiB)
    • The Dangers in My Heart - S01E08.mkv (156.0 MiB)
    • The Dangers in My Heart - S01E09.mkv (126.3 MiB)
    • The Dangers in My Heart - S01E10.mkv (153.4 MiB)
    • The Dangers in My Heart - S01E11.mkv (147.2 MiB)
    • The Dangers in My Heart - S01E12.mkv (159.8 MiB)
Thanks for the release and thanks for the language options helps alot with Plex/Jellyfin being stupid.
so only ep 4 & 5 changed or all of them ? I have your V1 of this and would like to know what to replace.

neoborn (uploader)

User
**@JoeGP** Replace EP 1-5. I was a little absent minded and didn't adjust the dialogue between the 2 initial sub sources to look the same. This is fixed in here for the first 3 episodes together with EP 4-5 having a new sub source.

neoborn (uploader)

User
**@Slainor** I've set up my files to work with plex. I am using it myself. Check **[my comment here](https://nyaa.si/view/1508751#com-5)** to see how to set up plex so it chooses the correct tracks both for Japanese and English audio settings. Hope this helps. If you really dont need the other audio track it's best to remove it to save up on data though =)