[MagicStar] Tatoe Anata wo Wasuretemo EP04 [WEBDL] [1080p] [U-NEXT] [JPN_SUB]

Category:
Date:
2023-11-13 20:08 UTC
Submitter:
Seeders:
3
Information:
Leechers:
0
File size:
1.3 GiB
Completed:
504
Info hash:
745ba54f66de8a6b73316ca4e474b1d9377ff3eb
HD 1080p from U-NEXT. Japanese subtitles added. ************** We are planning to upload all U-NEXT Dramas and Movies, we need your Support! ************** Support Us Ali (Zhifubao / QR code): https://i.ibb.co/FWV2ggm/1660626347125.png PayPalMe: https://www.paypal.com/paypalme/sakuragikenji ETH (ERC20): 0xea3286E176099E8C9aBaf25A0edf231374C04E89 USDT (BTC / OMNI): 1Lemw6fu5vG3NdvWGxDxsPX7T7yUb3rNzu ************** ![alt text](https://i.ibb.co/QXj88Rb/SID0094262.jpg) ![alt text](https://i.ibb.co/8KLrrTk/Tatoe-Anata-wo-Wasuretemo-EP04-1080p-U-NEXT-WEB-DL-AAC2-0-H-264-Magic-Star-mkv.jpg) ``` General Unique ID : 298899277416929844605607156527434751711 (0xE0DDE828D9316164073B151524A2DEDF) Complete name : Tatoe.Anata.wo.Wasuretemo.EP04.1080p.U-NEXT.WEB-DL.AAC2.0.H.264-MagicStar.mkv Format : Matroska Format version : Version 4 File size : 1.30 GiB Duration : 44 min 44 s Overall bit rate : 4 146 kb/s Frame rate : 29.970 FPS Encoded date : 2023-11-13 09:57:47 UTC Writing application : mkvmerge v50.0.0 ('Awakenings') 64-bit Writing library : libebml v1.4.0 + libmatroska v1.6.2 Cover : Yes Attachments : cover.png Video ID : 1 Format : AVC Format/Info : Advanced Video Codec Format profile : Main@L4 Format settings : CABAC / 2 Ref Frames Format settings, CABAC : Yes Format settings, Reference fra : 2 frames Codec ID : V_MPEG4/ISO/AVC Duration : 44 min 44 s Bit rate : 4 020 kb/s Width : 1 920 pixels Height : 1 080 pixels Display aspect ratio : 16:9 Frame rate mode : Constant Frame rate : 29.970 (29970/1000) FPS Color space : YUV Chroma subsampling : 4:2:0 Bit depth : 8 bits Scan type : Progressive Bits/(Pixel*Frame) : 0.065 Stream size : 1.26 GiB (97%) Writing library : x264 core 148 r2665kMod a01e339 Encoding settings : cabac=1 / ref=2 / deblock=1:1:1 / analyse=0x1:0x111 / me=tesa / subme=11 / psy=1 / fade_compensate=0.00 / psy_rd=0.40:0.10 / mixed_ref=1 / me_range=48 / chroma_me=1 / trellis=2 / 8x8dct=0 / cqm=0 / deadzone=21,11 / fast_pskip=1 / chroma_qp_offset=-3 / threads=12 / lookahead_threads=1 / sliced_threads=0 / nr=0 / decimate=1 / interlaced=0 / bluray_compat=0 / constrained_intra=0 / fgo=0 / bframes=2 / b_pyramid=0 / b_adapt=2 / b_bias=0 / direct=3 / weightb=1 / open_gop=0 / weightp=2 / keyint=60 / keyint_min=31 / scenecut=0 / intra_refresh=0 / rc_lookahead=60 / rc=2pass / mbtree=1 / bitrate=4020 / ratetol=1.0 / qcomp=0.80 / qpmin=10 / qpmax=69 / qpstep=15 / cplxblur=20.0 / qblur=0.5 / vbv_maxrate=8050 / vbv_bufsize=8050 / nal_hrd=none / filler=0 / ip_ratio=1.40 / aq=2:0.60 Default : Yes Forced : No Audio ID : 2 Format : AAC LC Format/Info : Advanced Audio Codec Low Complexity Codec ID : A_AAC-2 Duration : 44 min 44 s Bit rate : 125 kb/s Channel(s) : 2 channels Channel layout : L R Sampling rate : 48.0 kHz Frame rate : 46.875 FPS (1024 SPF) Compression mode : Lossy Stream size : 40.1 MiB (3%) Title : 日本語 [オリジナル] Language : Japanese Default : Yes Forced : No ```

File list