[MagicStar] Tasogare Yuusaku EP06 [WEBDL] [1080p] [JPN_SUB]

Category:
Date:
2023-11-12 00:14 UTC
Submitter:
Seeders:
1
Information:
Leechers:
0
File size:
949.5 MiB
Completed:
572
Info hash:
78421fb3578deffff20d671e641d9499759d5e77
HD 1080p from TVer. Japanese subtitles added. ![alt text](https://i.ibb.co/sCGfbSQ/b100c7f-w1.jpg) ![alt text](https://i.ibb.co/kc0YmKg/Magic-Star-Tasogare-Yuusaku-EP06-WEBDL-1080p-mkv.jpg) ``` General Unique ID : 174207994216933531305522793641087117956 (0x830F3D403C3D6194A5AE06752CD8AA84) Complete name : [MagicStar] Tasogare Yuusaku EP06 [WEBDL] [1080p].mkv Format : Matroska Format version : Version 4 File size : 949 MiB Duration : 45 min 57 s Overall bit rate mode : Variable Overall bit rate : 2 889 kb/s Frame rate : 29.970 FPS Encoded date : 2023-11-11 19:50:21 UTC Writing application : mkvmerge v50.0.0 ('Awakenings') 64-bit Writing library : libebml v1.4.0 + libmatroska v1.6.2 Video ID : 1 Format : AVC Format/Info : Advanced Video Codec Format profile : High@L4 Format settings : CABAC / 4 Ref Frames Format settings, CABAC : Yes Format settings, Reference fra : 4 frames Codec ID : V_MPEG4/ISO/AVC Duration : 45 min 57 s Bit rate mode : Variable Bit rate : 2 694 kb/s Maximum bit rate : 4 049 kb/s Width : 1 920 pixels Height : 1 080 pixels Display aspect ratio : 16:9 Frame rate mode : Constant Frame rate : 29.970 (29970/1000) FPS Original frame rate : 29.970 (30000/1001) FPS Color space : YUV Chroma subsampling : 4:2:0 Bit depth : 8 bits Scan type : Progressive Bits/(Pixel*Frame) : 0.043 Stream size : 886 MiB (93%) Default : Yes Forced : No Color range : Limited Color primaries : BT.709 Transfer characteristics : BT.709 Matrix coefficients : BT.709 Audio ID : 2 Format : AAC LC Format/Info : Advanced Audio Codec Low Complexity Codec ID : A_AAC-2 Duration : 45 min 57 s Bit rate : 192 kb/s Channel(s) : 2 channels Channel layout : L R Sampling rate : 48.0 kHz Frame rate : 46.875 FPS (1024 SPF) Compression mode : Lossy Stream size : 63.0 MiB (7%) Title : 日本語 [オリジナル] Language : Japanese Default : Yes Forced : No ```

File list