Tada.Never.Falls.in.Love.S01.1080p.BluRay.10-Bit.Dual-Audio.FLAC2.0.x265-YURASUKA (Tada-kun wa Koi wo Shinai)

Category:
Date:
2023-11-11 07:53 UTC
Submitter:
Seeders:
21
Information:
Leechers:
0
File size:
10.2 GiB
Completed:
606
Info hash:
98968975ffb3c576119e8d07db86b4c8ad084f7d
Tada Never Falls in Love / Tada-kun wa Koi wo Shinai Season 1 (2018) A/V Source: LoliHouse@U2 (JPBD) English Audio: DarkraiArceus001@U2 (USBD) Subtitles Source: [iFU@Nyaa](https://nyaa.si/view/1416346) [Astral&Mysteria] [Encode Comparison](https://slow.pics/c/ZegvH6Y6) ``` Complete name : Tada.Never.Falls.in.Love.S01E02.1080p.BluRay.10-Bit.Dual-Audio.FLAC2.0.x265-YURASUKA.mkv Format : Matroska Format version : Version 4 File size : 933 MiB Duration : 23 min 42 s Overall bit rate mode : Variable Overall bit rate : 5 504 kb/s Frame rate : 23.976 FPS Movie name : Tada Never Falls in Love - S01E02 - YURASUKA Encoded date : 2023-11-10 22:05:42 UTC Writing application : mkvmerge v80.0 ('Roundabout') 64-bit Writing library : libebml v1.4.4 + libmatroska v1.7.1 Attachments : A-OTF-Jun34Pro-Medium-Kami.ttf / APACHE.TTF / APJapanesefontT.ttf / ArnoPro-Regular.otf / BD_Cartoon_Shout.ttf / Bolide-Regular.ttf / BradBunR_0.ttf / BrandonText-Medium.otf / Brianne_s_hand.ttf / Brush Strokes.ttf / CK_Marker_0-v2.ttf / Cookies.ttf / CronosPro-Semibold.ttf / edited-cronospro.otf / GANDHISANS-BOLD_1.OTF / HandwritingCR-2.ttf / Handwritingfont_lat.ttf / KGRedHands.ttf / LAURENCB.TTF / LT_3.ttf / Mortal_Kombat.ttf / ROUNDED-MGENPLUS-1C-HEAVY.TTF / RussoOne-Regular.ttf / TypoSlab_light_demo.otf Video ID : 1 Format : HEVC Format/Info : High Efficiency Video Coding Format profile : Main 10@L5@High Codec ID : V_MPEGH/ISO/HEVC Duration : 23 min 40 s Bit rate : 4 037 kb/s Width : 1 920 pixels Height : 1 080 pixels Display aspect ratio : 16:9 Frame rate mode : Constant Frame rate : 23.976 (24000/1001) FPS Color space : YUV Chroma subsampling : 4:2:0 Bit depth : 10 bits Bits/(Pixel*Frame) : 0.081 Stream size : 684 MiB (73%) Title : YURASUKA 1080p x265 Writing library : x265 3.5:[Linux][GCC 11.2.0][64 bit] 10bit Encoding settings : cpuid=1111039 / frame-threads=5 / numa-pools=32 / wpp / no-pmode / no-pme / no-psnr / no-ssim / log-level=2 / input-csp=1 / input-res=1920x1080 / interlace=0 / total-frames=0 / level-idc=0 / high-tier=1 / uhd-bd=0 / ref=6 / no-allow-non-conformance / no-repeat-headers / annexb / no-aud / no-hrd / info / hash=0 / no-temporal-layers / open-gop / min-keyint=1 / keyint=360 / gop-lookahead=0 / bframes=16 / b-adapt=2 / b-pyramid / bframe-bias=0 / rc-lookahead=72 / lookahead-slices=4 / scenecut=40 / hist-scenecut=0 / radl=0 / no-splice / no-intra-refresh / ctu=32 / min-cu-size=8 / rect / amp / max-tu-size=32 / tu-inter-depth=3 / tu-intra-depth=3 / limit-tu=4 / rdoq-level=2 / dynamic-rd=0.00 / no-ssim-rd / signhide / tskip / nr-intra=0 / nr-inter=0 / no-constrained-intra / strong-intra-smoothing / max-merge=5 / limit-refs=3 / limit-modes / me=3 / subme=7 / merange=57 / temporal-mvp / no-frame-dup / no-hme / weightp / weightb / analyze-src-pics / deblock=0:0 / no-sao / no-sao-non-deblock / rd=6 / selective-sao=0 / no-early-skip / rskip / no-fast-intra / no-tskip-fast / no-cu-lossless / b-intra / no-splitrd-skip / rdpenalty=0 / psy-rd=2.00 / psy-rdoq=2.00 / no-rd-refine / no-lossless / cbqpoffs=-2 / crqpoffs=-2 / rc=crf / crf=16.0 / qcomp=0.72 / qpstep=4 / stats-write=0 / stats-read=0 / vbv-maxrate=15000 / vbv-bufsize=30000 / vbv-init=0.9 / min-vbv-fullness=50.0 / max-vbv-fullness=80.0 / crf-max=0.0 / crf-min=0.0 / ipratio=1.40 / pbratio=1.30 / aq-mode=3 / aq-strength=0.85 / cutree / zone-count=0 / no-strict-cbr / qg-size=32 / no-rc-grain / qpmax=69 / qpmin=0 / no-const-vbv / sar=1 / overscan=0 / videoformat=5 / range=0 / colorprim=1 / transfer=1 / colormatrix=1 / chromaloc=0 / display-window=0 / cll=0,0 / min-luma=0 / max-luma=1023 / log2-max-poc-lsb=8 / vui-timing-info / vui-hrd-info / slices=1 / no-opt-qp-pps / no-opt-ref-list-length-pps / no-multi-pass-opt-rps / scenecut-bias=0.05 / hist-threshold=0.03 / no-opt-cu-delta-qp / no-aq-motion / no-hdr10 / no-hdr10-opt / no-dhdr10-opt / no-idr-recovery-sei / analysis-reuse-level=0 / analysis-save-reuse-level=0 / analysis-load-reuse-level=0 / scale-factor=0 / refine-intra=0 / refine-inter=0 / refine-mv=1 / refine-ctu-distortion=0 / no-limit-sao / ctu-info=0 / no-lowpass-dct / refine-analysis-type=0 / copy-pic=1 / max-ausize-factor=1.0 / no-dynamic-refine / no-single-sei / no-hevc-aq / no-svt / no-field / qp-adaptation-range=1.00 / scenecut-aware-qp=0conformance-window-offsets / right=0 / bottom=0 / decoder-max-rate=0 / no-vbv-live-multi-pass Language : Japanese Default : Yes Forced : No Color range : Limited Color primaries : BT.709 Transfer characteristics : BT.709 Matrix coefficients : BT.709 Audio #1 ID : 2 Format : FLAC Format/Info : Free Lossless Audio Codec Codec ID : A_FLAC Duration : 23 min 41 s Bit rate mode : Variable Bit rate : 658 kb/s Channel(s) : 2 channels Channel layout : L R Sampling rate : 48.0 kHz Frame rate : 10.417 FPS (4608 SPF) Bit depth : 16 bits Compression mode : Lossless Delay relative to video : 55 ms Stream size : 112 MiB (12%) Title : English FLAC 2.0 Writing library : Lavf60.3.100 Language : English Default : Yes Forced : No MD5 of the unencoded content : C21E23C4746DAF5C20D8452485C0F67E Audio #2 ID : 3 Format : FLAC Format/Info : Free Lossless Audio Codec Codec ID : A_FLAC Duration : 23 min 40 s Bit rate mode : Variable Bit rate : 687 kb/s Channel(s) : 2 channels Channel layout : L R Sampling rate : 48.0 kHz Frame rate : 10.417 FPS (4608 SPF) Bit depth : 16 bits Compression mode : Lossless Stream size : 116 MiB (12%) Title : Japanese FLAC 2.0 Writing library : Lavf60.3.100 Language : Japanese Default : No Forced : No MD5 of the unencoded content : 50B2105F905510E3DF77B1DF016556EE Text #1 ID : 4 Format : ASS Codec ID : S_TEXT/ASS Codec ID/Info : Advanced Sub Station Alpha Duration : 23 min 27 s Bit rate : 8 421 b/s Frame rate : 6.127 FPS Count of elements : 8626 Compression mode : Lossless Stream size : 1.41 MiB (0%) Title : Signs & Songs [Astral&Mysteria] Language : English Default : Yes Forced : Yes Text #2 ID : 5 Format : ASS Codec ID : S_TEXT/ASS Codec ID/Info : Advanced Sub Station Alpha Duration : 23 min 30 s Bit rate : 8 540 b/s Frame rate : 6.428 FPS Count of elements : 9067 Compression mode : Lossless Stream size : 1.44 MiB (0%) Title : Dialogue [Astral&Mysteria] Language : English Default : No Forced : No Menu 00:00:00.000 : ja:Prologue 00:01:45.022 : ja:Opening 00:03:14.986 : ja:Part A 00:11:11.963 : ja:Part B 00:23:24.945 : ja:Preview ``` Dead end for a sucker that’s a sucker like me. 私のようなカモの行き止まりです。

File list

  • Tada.Never.Falls.in.Love.S01.1080p.BluRay.10-Bit.Dual-Audio.FLAC2.0.x265-YURASUKA
    • Tada.Never.Falls.in.Love.S01E01.1080p.BluRay.10-Bit.Dual-Audio.FLAC2.0.x265-YURASUKA.mkv (898.0 MiB)
    • Tada.Never.Falls.in.Love.S01E02.1080p.BluRay.10-Bit.Dual-Audio.FLAC2.0.x265-YURASUKA.mkv (933.2 MiB)
    • Tada.Never.Falls.in.Love.S01E03.1080p.BluRay.10-Bit.Dual-Audio.FLAC2.0.x265-YURASUKA.mkv (867.2 MiB)
    • Tada.Never.Falls.in.Love.S01E04.1080p.BluRay.10-Bit.Dual-Audio.FLAC2.0.x265-YURASUKA.mkv (802.8 MiB)
    • Tada.Never.Falls.in.Love.S01E05.1080p.BluRay.10-Bit.Dual-Audio.FLAC2.0.x265-YURASUKA.mkv (808.2 MiB)
    • Tada.Never.Falls.in.Love.S01E06.1080p.BluRay.10-Bit.Dual-Audio.FLAC2.0.x265-YURASUKA.mkv (768.6 MiB)
    • Tada.Never.Falls.in.Love.S01E07.1080p.BluRay.10-Bit.Dual-Audio.FLAC2.0.x265-YURASUKA.mkv (849.5 MiB)
    • Tada.Never.Falls.in.Love.S01E08.1080p.BluRay.10-Bit.Dual-Audio.FLAC2.0.x265-YURASUKA.mkv (746.9 MiB)
    • Tada.Never.Falls.in.Love.S01E09.1080p.BluRay.10-Bit.Dual-Audio.FLAC2.0.x265-YURASUKA.mkv (751.8 MiB)
    • Tada.Never.Falls.in.Love.S01E10.1080p.BluRay.10-Bit.Dual-Audio.FLAC2.0.x265-YURASUKA.mkv (840.4 MiB)
    • Tada.Never.Falls.in.Love.S01E11.1080p.BluRay.10-Bit.Dual-Audio.FLAC2.0.x265-YURASUKA.mkv (732.9 MiB)
    • Tada.Never.Falls.in.Love.S01E12.1080p.BluRay.10-Bit.Dual-Audio.FLAC2.0.x265-YURASUKA.mkv (725.3 MiB)
    • Tada.Never.Falls.in.Love.S01E13.1080p.BluRay.10-Bit.Dual-Audio.FLAC2.0.x265-YURASUKA.mkv (672.7 MiB)