[MagicStar] My Home Hero EP04 [WEBDL] [720p] [DSNP] [JPN_ENG_CHT_SUB]

Category:
Date:
2023-11-07 20:52 UTC
Submitter:
Seeders:
1
Information:
Leechers:
0
File size:
580.1 MiB
Completed:
711
Info hash:
806a58612c830106bd7dacd5a979d9576bd05a08
HD 720p from Disney+. Japanese, English and Chinese subtitles added. ![alt text](https://i.ibb.co/09rDgDC/myhomehero.jpg) ![alt text](https://i.ibb.co/gZd38k5/My-Home-Hero-EP04-720p-DSNP-WEB-DL-AAC2-0-H-264-Magic-Star-mkv.jpg) ``` General Unique ID : 23493430476934926320593557630120144395 (0x11ACAB8D531300604D610833DAC8AE0B) Complete name : My.Home.Hero.EP04.720p.DSNP.WEB-DL.AAC2.0.H.264-MagicStar.mkv Format : Matroska Format version : Version 4 File size : 580 MiB Duration : 24 min 2 s Overall bit rate mode : Variable Overall bit rate : 3 374 kb/s Frame rate : 23.976 FPS Encoded date : 2023-11-07 18:49:45 UTC Writing application : mkvmerge v50.0.0 ('Awakenings') 64-bit Writing library : libebml v1.4.0 + libmatroska v1.6.2 Cover : Yes Attachments : cover.png Video ID : 1 Format : AVC Format/Info : Advanced Video Codec Format profile : High@L3.1 Format settings : CABAC / 4 Ref Frames Format settings, CABAC : Yes Format settings, Reference fra : 4 frames Codec ID : V_MPEG4/ISO/AVC Duration : 24 min 2 s Bit rate mode : Variable Bit rate : 3 168 kb/s Maximum bit rate : 6 375 kb/s Width : 1 280 pixels Height : 720 pixels Display aspect ratio : 16:9 Frame rate mode : Constant Frame rate : 23.976 (24000/1001) FPS Color space : YUV Chroma subsampling : 4:2:0 Bit depth : 8 bits Scan type : Progressive Bits/(Pixel*Frame) : 0.143 Stream size : 545 MiB (94%) Default : Yes Forced : No Color range : Limited Color primaries : BT.709 Transfer characteristics : BT.709 Matrix coefficients : BT.709 Audio ID : 2 Format : AAC LC Format/Info : Advanced Audio Codec Low Complexity Codec ID : A_AAC-2 Duration : 24 min 2 s Bit rate : 125 kb/s Channel(s) : 2 channels Channel layout : L R Sampling rate : 48.0 kHz Frame rate : 46.875 FPS (1024 SPF) Compression mode : Lossy Stream size : 21.6 MiB (4%) Title : 日本語 [オリジナル] Language : Japanese Default : Yes Forced : No ```

File list

  • [MagicStar] My Home Hero EP04 [WEBDL] [720p] [DSNP] [JPN_ENG_CHT_SUB]
    • My.Home.Hero.EP04.720p.DSNP.WEB-DL.AAC2.0.H.264-MagicStar.Cht.srt (20.6 KiB)
    • My.Home.Hero.EP04.720p.DSNP.WEB-DL.AAC2.0.H.264-MagicStar.Eng.srt (26.9 KiB)
    • My.Home.Hero.EP04.720p.DSNP.WEB-DL.AAC2.0.H.264-MagicStar.Jpn.srt (25.3 KiB)
    • My.Home.Hero.EP04.720p.DSNP.WEB-DL.AAC2.0.H.264-MagicStar.mkv (580.1 MiB)