[MagicStar] Tasogare Yuusaku EP05 [HDTV] [1080p] [BS-TX] [JPN_SUB]

Category:
Date:
2023-11-07 03:51 UTC
Submitter:
Seeders:
1
Information:
Leechers:
0
File size:
1.1 GiB
Completed:
368
Info hash:
a983c01100f4ee3a4bc8bedf801f9212a444c74c
HD 1080p from BS TV Tokyo. Japanese subtitles added. Note: Providing Japanese subtitles and encoded sources of TV Tokyo dramas as a reference might be a good start, but we don’t know how long we can continue, it depends on your support. So... ************** Support Us Ali (Zhifubao / QR code): https://i.ibb.co/FWV2ggm/1660626347125.png PayPalMe: https://www.paypal.com/paypalme/sakuragikenji ETH (ERC20): 0xea3286E176099E8C9aBaf25A0edf231374C04E89 USDT (BTC / OMNI): 1Lemw6fu5vG3NdvWGxDxsPX7T7yUb3rNzu ************** ![alt text](https://i.ibb.co/sCGfbSQ/b100c7f-w1.jpg) ![alt text](https://i.ibb.co/zh7Sdvx/Tasogare-Yuusaku-EP05-1080p-BS-TX-HDTV-H264-AAC-Magic-Star-mkv.jpg) ``` General Unique ID : 230728323510178650719406982308823547701 (0xAD94A8A24F52B67AAA58312A3167BF35) Complete name : Tasogare.Yuusaku.EP05.1080p.BS-TX.HDTV.H264.AAC-MagicStar.mkv Format : Matroska Format version : Version 2 File size : 1.09 GiB Duration : 46 min 0 s Overall bit rate : 3 396 kb/s Frame rate : 29.970 FPS Encoded date : 2023-11-06 03:35:37 UTC Writing application : mkvmerge v8.5.2 ('Crosses') 32bit Writing library : libebml v1.3.3 + libmatroska v1.4.4 Video ID : 1 Format : AVC Format/Info : Advanced Video Codec Format profile : High@L4.1 Format settings : CABAC / 4 Ref Frames Format settings, CABAC : Yes Format settings, Reference fra : 4 frames Codec ID : V_MPEG4/ISO/AVC Duration : 45 min 59 s Bit rate : 3 201 kb/s Width : 1 920 pixels Height : 1 080 pixels Display aspect ratio : 16:9 Frame rate mode : Constant Frame rate : 29.970 (30000/1001) FPS Color space : YUV Chroma subsampling : 4:2:0 Bit depth : 8 bits Scan type : Progressive Bits/(Pixel*Frame) : 0.052 Stream size : 1.03 GiB (94%) Writing library : x264 core 148 r2638 7599210 Encoding settings : cabac=1 / ref=3 / deblock=1:0:0 / analyse=0x3:0x113 / me=umh / subme=8 / psy=1 / psy_rd=1.00:0.00 / mixed_ref=0 / me_range=16 / chroma_me=1 / trellis=2 / 8x8dct=1 / cqm=0 / deadzone=21,11 / fast_pskip=1 / chroma_qp_offset=-2 / threads=24 / lookahead_threads=4 / sliced_threads=0 / nr=0 / decimate=1 / interlaced=0 / bluray_compat=0 / constrained_intra=0 / bframes=3 / b_pyramid=2 / b_adapt=2 / b_bias=0 / direct=3 / weightb=1 / open_gop=0 / weightp=2 / keyint=300 / keyint_min=29 / scenecut=40 / intra_refresh=0 / rc_lookahead=40 / rc=crf / mbtree=1 / crf=21.0 / qcomp=0.60 / qpmin=0 / qpmax=69 / qpstep=4 / ip_ratio=1.40 / aq=1:1.00 Default : Yes Forced : No Audio ID : 2 Format : AAC LC Format/Info : Advanced Audio Codec Low Complexity Codec ID : A_AAC-2 Duration : 46 min 0 s Bit rate : 192 kb/s Channel(s) : 2 channels Channel layout : L R Sampling rate : 48.0 kHz Frame rate : 46.875 FPS (1024 SPF) Compression mode : Lossy Stream size : 63.2 MiB (6%) Language : Japanese Default : Yes Forced : No ```

File list