[MagicStar] Ichiban Suki na Hana EP04 [WEBDL] [1080p] [AMZN] [JPN_SUB] [Audio Description]

Category:
Date:
2023-11-05 12:51 UTC
Submitter:
Seeders:
1
File size:
1.5 GiB
Completed:
300
Info hash:
cd5a5e9af7201741d6871143469a51872d08980b
HD 1080p from Prime Video. Use CBR bitrate mode. Japanese subtitles added. Audio description. ************** We are planning to upload all Prime Video Japan Dramas and Movies, we need your Support! ************** Support Us Ali (Zhifubao / QR code): https://i.ibb.co/FWV2ggm/1660626347125.png PayPalMe: https://www.paypal.com/paypalme/sakuragikenji ETH (ERC20): 0xea3286E176099E8C9aBaf25A0edf231374C04E89 USDT (BTC / OMNI): 1Lemw6fu5vG3NdvWGxDxsPX7T7yUb3rNzu ************** ![alt text](https://i.ibb.co/8DprWJK/98cef8c442102dca937c057e14c787ca649888c9ed16c775a1a8ad7a4d8128c4.jpg) ![alt text](https://i.ibb.co/cym72kz/Ichiban-Suki-na-Hana-EP04-1080p-AMZN-WEB-DL-DDP2-0-H-264-Audio-Description-Magic-Star-mkv.jpg) ``` General Unique ID : 114857577160404118006463661892345460831 (0x5668C3C4A4DBB8268DD8071AB33AF85F) Complete name : Ichiban.Suki.na.Hana.EP04.1080p.AMZN.WEB-DL.DDP2.0.H.264.Audio.Description-MagicStar.mkv Format : Matroska Format version : Version 4 File size : 1.54 GiB Duration : 46 min 7 s Overall bit rate mode : Constant Overall bit rate : 4 790 kb/s Frame rate : 29.970 FPS Encoded date : 2023-11-04 14:30:31 UTC Writing application : mkvmerge v50.0.0 ('Awakenings') 64-bit Writing library : libebml v1.4.0 + libmatroska v1.6.2 Cover : Yes Attachments : cover.png Video ID : 1 Format : AVC Format/Info : Advanced Video Codec Format profile : High@L4 Format settings : CABAC / 4 Ref Frames Format settings, CABAC : Yes Format settings, Reference fra : 4 frames Codec ID : V_MPEG4/ISO/AVC Duration : 46 min 6 s Bit rate mode : Constant Bit rate : 4 563 kb/s Nominal bit rate : 10 000 kb/s Width : 1 920 pixels Height : 1 080 pixels Display aspect ratio : 16:9 Frame rate mode : Constant Frame rate : 29.970 (29970/1000) FPS Original frame rate : 29.970 (30000/1001) FPS Color space : YUV Chroma subsampling : 4:2:0 Bit depth : 8 bits Scan type : Progressive Bits/(Pixel*Frame) : 0.073 Stream size : 1.47 GiB (95%) Default : Yes Forced : No Color range : Limited Color primaries : BT.709 Transfer characteristics : BT.709 Matrix coefficients : BT.709 Audio ID : 2 Format : E-AC-3 Format/Info : Enhanced AC-3 Commercial name : Dolby Digital Plus Codec ID : A_EAC3 Duration : 46 min 7 s Bit rate mode : Constant Bit rate : 224 kb/s Channel(s) : 2 channels Channel layout : L R Sampling rate : 48.0 kHz Frame rate : 31.250 FPS (1536 SPF) Compression mode : Lossy Stream size : 73.9 MiB (5%) Title : 日本語 [解説放送音声] Language : Japanese Service kind : Complete Main Default : Yes Forced : No ```

File list