[MagicStar] Fermat no Ryouri EP01 [WEBDL] [1080p] [JPN_SUB]

Category:
Date:
2023-10-20 14:23 UTC
Submitter:
Seeders:
2
Information:
Leechers:
0
File size:
1.2 GiB
Completed:
1499
Info hash:
ce2d9342b360e411af8258807dbafcebd0ff08ca
HD 1080p from TVer. Japanese subtitles added. ![alt text](https://i.ibb.co/7kPw2r7/240211.jpg) ![alt text](https://i.ibb.co/rfXnht7/Magic-Star-Fermat-no-Ryouri-EP01-WEBDL-1080p-mkv.jpg) ``` General Unique ID : 46835135954807024570854652170201615515 (0x233C1E7BED659AF2B2ED4D434E0A4C9B) Complete name : [MagicStar] Fermat no Ryouri EP01 [WEBDL] [1080p].mkv Format : Matroska Format version : Version 4 File size : 1.19 GiB Duration : 59 min 2 s Overall bit rate : 2 895 kb/s Frame rate : 29.970 FPS Encoded date : 2023-10-20 14:12:38 UTC Writing application : mkvmerge v50.0.0 ('Awakenings') 64-bit Writing library : libebml v1.4.0 + libmatroska v1.6.2 Video ID : 1 Format : AVC Format/Info : Advanced Video Codec Format profile : High@L4 Format settings : CABAC / 4 Ref Frames Format settings, CABAC : Yes Format settings, Reference fra : 4 frames Codec ID : V_MPEG4/ISO/AVC Duration : 59 min 2 s Bit rate : 2 700 kb/s Width : 1 920 pixels Height : 1 080 pixels Display aspect ratio : 16:9 Frame rate mode : Constant Frame rate : 29.970 (29970/1000) FPS Original frame rate : 29.970 (30000/1001) FPS Color space : YUV Chroma subsampling : 4:2:0 Bit depth : 8 bits Scan type : Progressive Bits/(Pixel*Frame) : 0.043 Stream size : 1.11 GiB (93%) Default : Yes Forced : No Color range : Limited Color primaries : BT.709 Transfer characteristics : BT.709 Matrix coefficients : BT.709 Audio ID : 2 Format : AAC LC Format/Info : Advanced Audio Codec Low Complexity Codec ID : A_AAC-2 Duration : 59 min 2 s Bit rate : 192 kb/s Channel(s) : 2 channels Channel layout : L R Sampling rate : 48.0 kHz Frame rate : 46.875 FPS (1024 SPF) Compression mode : Lossy Stream size : 81.1 MiB (7%) Title : 日本語 [オリジナル] Language : Japanese Default : Yes Forced : No ```

File list