[neoDESU] Smile of the Arsnotoria the Animation [Season 1] [WEB 1080p x265 HEVC AAC] [Dual Audio] Warau Arsnotoria Sun!

Category:
Date:
2023-10-15 13:35 UTC
Submitter:
Seeders:
11
Information:
Leechers:
0
File size:
3.4 GiB
Completed:
527
Info hash:
7b29e9c4dd54ffceb67d0fa9b78268d0f25a81da
![](https://i.lensdump.com/i/6BKULK.png) *Come hang out in **[Discord](https://discord.gg/47Q7FdB54e)*** #### **[Smile of the Arsnotoria the Animation [Season 1]](https://myanimelist.net/anime/51923/Warau_Arsnotoria_Sun)** ▶️ **[Trailer](https://www.youtube.com/watch?v=HdN53pv1tog)** --- **Notes:** . Resampled script . Restyled script and changed fonts . Created signs TS . Created styled OP & ED . Created chapters --- **Synopsis** In the magical academic city of Ashram, girls known as Pentagrams study general education, magic, and etiquette to become proper ladies. Hidden from the rest of the world, the school is like a secret garden that is home to blossoming flowers. However, bugs sensitive to magic may target and trample them; as one of their tasks, the girls must exterminate these insects. The smileless Pentagram Arsnotoria lives in the fifth dorm house alongside her adored roommates: the cheerful Mell, the self-paced Little Alberta, the confident Picatrix, and the cool Abramelin. No matter what time of day, they hang out together as much as possible, and even throw tea parties in their secret room after completing their duties. The girls live in peace as they work toward their goal—but there may be more to Ashram and the Pentagrams beyond the calm life they have come to cherish. ![](https://c.l3n.co/i/qL4CBA.png) --- **Language Options** I included two simple scripts that you can apply to these files to do the following (Windows only): 1. Make [Single Audio] Japanese: Throws out *English audio* and *Signs&Songs subtitles* tracks 2. Make [Single Audio] English: Throws out *Japanese audio* and *Dialogue subtitles* tracks To apply these put all the video files into the *Language Options* folder and run the .bat file. *Don't combine them and only use them once together with the base files.* --- **Source** 🗃️ Video, JPN Audio and Subtitles (WEB): **[[SubsPlease]](https://nyaa.si/view/1622531)** 🗃️ ENG Audio (WEB): **[[Yameii]](https://nyaa.si/view/1557927)** 💬 *Subtitles Info: [SubsPlease] Base [Me] Edits, see notes* *Thank you all for making this possible <3* --- **Media Info** 🆔 **[Full Mediainfo incl. Encoder Settings](https://pastebin.com/HXhs4BQi)** ``` General Unique ID : 229969767899573452674300481943570694830 (0xAD0290F475A6C4E74BD215DBF0BB42AE) Complete name : Smile of the Arsnotoria the Animation - S01E01.mkv Format : Matroska Format version : Version 4 File size : 353 MiB Duration : 23 min 42 s Overall bit rate : 2 081 kb/s Encoded date : UTC 2023-10-15 12:07:34 Writing application : mkvmerge v72.0.0 ('Minuano (Six-eight)') 64-bit Writing library : libebml v1.4.4 + libmatroska v1.7.1 Attachments : KGMissKindyChunky.ttf / times.ttf / CRONOSPRO-BOLD.OTF / CRONOSPRO-BOLDIT.OTF / Planewalker.otf / Roboto-Medium.ttf / Roboto-MediumItalic.ttf / arial.ttf / arialbd.ttf / comic.ttf / comicbd.ttf / times.ttf / timesbd.ttf / trebuc.ttf / trebucbd.ttf / verdana.ttf / verdanab.ttf / CONSOLA.TTF / CONSOLAB.TTF Video ID : 1 Format : HEVC Format/Info : High Efficiency Video Coding Format profile : Main 10@L4@High Codec ID : V_MPEGH/ISO/HEVC Duration : 23 min 40 s Bit rate : 1 776 kb/s Width : 1 920 pixels Height : 1 080 pixels Display aspect ratio : 16:9 Frame rate mode : Constant Frame rate : 23.976 (24000/1001) FPS Color space : YUV Chroma subsampling : 4:2:0 Bit depth : 10 bits Bits/(Pixel*Frame) : 0.036 Stream size : 301 MiB (85%) Writing library : x265 3.5+37+12-4e46995bc:[Windows][MSVC 1931][64 bit] 10bit Encoding settings : <Check Link Above> Default : Yes Forced : No Audio #1 ID : 2 Format : AAC LC Format/Info : Advanced Audio Codec Low Complexity Codec ID : A_AAC-2 Duration : 23 min 40 s Bit rate : 128 kb/s Channel(s) : 2 channels Channel layout : L R Sampling rate : 44.1 kHz Frame rate : 43.066 FPS (1024 SPF) Compression mode : Lossy Stream size : 21.7 MiB (6%) Title : English Language : English Default : Yes Forced : No Audio #2 ID : 3 Format : AAC LC Format/Info : Advanced Audio Codec Low Complexity Codec ID : A_AAC-2 Duration : 23 min 40 s Bit rate : 128 kb/s Channel(s) : 2 channels Channel layout : L R Sampling rate : 44.1 kHz Frame rate : 43.066 FPS (1024 SPF) Compression mode : Lossy Stream size : 21.7 MiB (6%) Title : Japanese Language : Japanese Default : No Forced : No Text #1 ID : 4 Format : ASS Codec ID : S_TEXT/ASS Codec ID/Info : Advanced Sub Station Alpha Duration : 22 min 8 s Bit rate : 1 930 b/s Frame rate : 1.595 FPS Count of elements : 2119 Compression mode : Lossless Stream size : 313 KiB (0%) Title : Signs & Songs Language : English Default : No Forced : Yes Text #2 ID : 5 Format : ASS Codec ID : S_TEXT/ASS Codec ID/Info : Advanced Sub Station Alpha Duration : 23 min 17 s Bit rate : 1 935 b/s Frame rate : 1.731 FPS Count of elements : 2419 Compression mode : Lossless Stream size : 330 KiB (0%) Title : Dialogue Language : English Default : Yes Forced : No Menu 00:00:00.000 : :Intro 00:01:14.970 : :OP 00:02:45.020 : :Episode 00:22:04.970 : :ED 00:23:34.980 : :Preview ```

File list

  • [neoDESU] Smile of the Arsnotoria the Animation [Season 1] [WEB 1080p x265 HEVC AAC] [Dual Audio]
    • Language Options
      • 1. Make [Single Audio] English.bat (254 Bytes)
      • 2. Make [Single Audio] Japanese.bat (254 Bytes)
      • mkvmerge.exe (9.6 MiB)
      • readme.txt (511 Bytes)
    • Smile of the Arsnotoria the Animation - S01E01.mkv (353.0 MiB)
    • Smile of the Arsnotoria the Animation - S01E02.mkv (300.7 MiB)
    • Smile of the Arsnotoria the Animation - S01E03.mkv (283.2 MiB)
    • Smile of the Arsnotoria the Animation - S01E04.mkv (261.7 MiB)
    • Smile of the Arsnotoria the Animation - S01E05.mkv (240.8 MiB)
    • Smile of the Arsnotoria the Animation - S01E06.mkv (325.0 MiB)
    • Smile of the Arsnotoria the Animation - S01E07.mkv (253.6 MiB)
    • Smile of the Arsnotoria the Animation - S01E08.mkv (311.7 MiB)
    • Smile of the Arsnotoria the Animation - S01E09.mkv (335.3 MiB)
    • Smile of the Arsnotoria the Animation - S01E10.mkv (279.2 MiB)
    • Smile of the Arsnotoria the Animation - S01E11.mkv (251.0 MiB)
    • Smile of the Arsnotoria the Animation - S01E12.mkv (317.0 MiB)