[EncoderAnon]Pocket Monsters (Pokemon) Episode 001 Pokemon! I Choose You! [1080p][BluRay CC][x264 10bit]

Category:
Date:
2023-10-14 18:30 UTC
Submitter:
Seeders:
8
Information:
No information.
Leechers:
0
File size:
5.8 GiB
Completed:
449
Info hash:
d37bda3acdd215f504ffe064451d7cc0a0599a77
Straight from the time capsule (of my hard drive) i bring Pokemon's (pocket monsters) episode one color corrected for whomst ever cares. I think i made this around 2-3 years after HxH99 but never got around uploading it. Pokemon's movie 20 bluray contained a fresh scan of the first episode of the original series which had some serious hue issues (it was red) and i went and color corrected the entire episode mostly scene by scene. I used the old pocketmonsters-fansubs translation for which i fixed some minor grammar errors and re-typeset the whole thing + added the ever useful karaoke for those who care. All encoded in a nice bloaty CRF18 or 19 for """archival purposes""". [Comparison pictures can be found here](https://slow.pics/c/jI4Ig9j5) FAQ: (Q: *why did you do x,y,z?* A: *I dont remember, i just think this actually looks good and wanted to finally upload it*) ***Media info below the image:*** ![alt text](https://i.slow.pics/wEfU8L7w.png "Preview Image") ``` Video ID : 1 Format : AVC Format/Info : Advanced Video Codec Format profile : High 10@L5 Format settings : CABAC / 10 Ref Frames Format settings, CABAC : Yes Format settings, RefFrames : 10 frames Codec ID : V_MPEG4/ISO/AVC Duration : 22 min 23 s Bit rate : 35.8 Mb/s Width : 1 460 pixels Height : 1 080 pixels Display aspect ratio : 4:3 Frame rate mode : Constant Frame rate : 23.976 (23976/1000) FPS Color space : YUV Chroma subsampling : 4:2:0 Bit depth : 10 bits Scan type : Progressive Bits/(Pixel*Frame) : 0.946 Stream size : 5.59 GiB (96%) Writing library : x264 core 158 r2984 3759fcb Encoding settings : cabac=1 / ref=10 / deblock=1:-2:-2 / analyse=0x3:0x133 / me=tesa / subme=9 / psy=1 / psy_rd=1.00:0.25 / mixed_ref=1 / me_range=24 / chroma_me=1 / trellis=2 / 8x8dct=1 / cqm=0 / deadzone=6,6 / fast_pskip=0 / chroma_qp_offset=-4 / threads=18 / lookahead_threads=4 / sliced_threads=0 / nr=0 / decimate=0 / interlaced=0 / bluray_compat=0 / constrained_intra=0 / bframes=16 / b_pyramid=2 / b_adapt=2 / b_bias=0 / direct=3 / weightb=1 / open_gop=0 / weightp=2 / keyint=250 / keyint_min=23 / scenecut=40 / intra_refresh=0 / rc_lookahead=60 / rc=crf / mbtree=1 / crf=18.0 / qcomp=0.80 / qpmin=0 / qpmax=81 / qpstep=4 / ip_ratio=1.10 / aq=1:0.50 Language : English Default : Yes Forced : No Audio ID : 2 Format : PCM Format settings : Little / Signed Codec ID : A_PCM/INT/LIT Duration : 22 min 23 s Bit rate mode : Constant Bit rate : 1 536 kb/s Channel(s) : 2 channels Sampling rate : 48.0 kHz Frame rate : 200.000 FPS (240 SPF) Bit depth : 16 bits Stream size : 246 MiB (4%) Language : Japanese Default : Yes Forced : No Text #1 ID : 3 Format : ASS Codec ID : S_TEXT/ASS Codec ID/Info : Advanced Sub Station Alpha Duration : 22 min 12 s Bit rate : 103 b/s Count of elements : 333 Compression mode : Lossless Stream size : 16.8 KiB (0%) Title : English Language : English Default : Yes Forced : No Text #2 ID : 4 Format : ASS Codec ID : S_TEXT/ASS Codec ID/Info : Advanced Sub Station Alpha Duration : 22 min 12 s Bit rate : 118 b/s Count of elements : 373 Compression mode : Lossless Stream size : 19.3 KiB (0%) Title : English + Karaoke Language : English Default : No Forced : No Menu 00:00:00.000 : :Op 00:01:29.000 : :Preview 00:03:32.000 : :Part01 00:11:37.000 : :Break 00:11:49.000 : :Part02 00:21:02.000 : :Ed ```

File list

  • [EncoderAnon]Pocket Monsters (Pokemon) Episode 001 Pokemon! I Choose You.mkv (5.8 GiB)
great job are you going to continue the project?
this is like 100th time someone released an amazing version of episode 1 and then stopped

encanon (uploader)

User
Unfortunately there's nothing left to continue.OLM only remastered the first episode for the anniversary/movie 20. The rest of the series is the same old crappy DVDs. This is just a one off release I did for this one because I am not aware of someone else fixing the episode up from the blurays.