[neoDESU] High-Rise Invasion [Season 1] [BD 1080p x265 HEVC OPUS AAC] [Dual Audio] Tenkuu Shinpan

Category:
Date:
2023-10-14 15:52 UTC
Submitter:
Seeders:
15
Information:
Leechers:
1
File size:
4.7 GiB
Completed:
1086
Info hash:
2bdb3ed7bde24d30de3a094315fa7b9594b2ade3
![](https://i.lensdump.com/i/6BKULK.png) *Come hang out in **[Discord](https://discord.gg/47Q7FdB54e)*** #### **[High-Rise Invasion [Season 1]](https://myanimelist.net/anime/43690/Tenkuu_Shinpan)** ▶️ **[Trailer](https://www.youtube.com/watch?v=hVzG_1yI62M)** --- **Notes:** . Resampled script . Restyled script and changed fonts . Applied timing post processor to get rid of rampant flickering . Edited dialogue overlaps . Created quick signs TS . Created styled OP & ED . Cut English audio Netflix intro/outro . Created chapters --- **Synopsis** Upon witnessing a man's head cracked open with an axe, 16-year-old Yuri Honjou trembles in fear and confusion as she flees from the masked assailant, only to find out she's trapped in an abandoned building where every door is mysteriously locked. Desperately searching for a way out, Yuri runs to the rooftop, but a world with no signs of life stands before her, surrounded by high-rise buildings. Though filled with despair, once she learns that her brother is also in this strange place, Yuri is determined to find him and escape. However, she soon finds that there are more masked murderers in the area, anxious to terrorize their newfound victims and satiate their sickest desires, leaving Yuri to question if they will be able to make it out alive. ![](https://c.l3n.co/i/qlznZc.png) --- **Language Options** I included two simple scripts that you can apply to these files to do the following (Windows only): 1. Make [Single Audio] Japanese: Throws out *English audio* and *Signs&Songs subtitles* tracks 2. Make [Single Audio] English: Throws out *Japanese audio* and *Dialogue subtitles* tracks To apply these put all the video files into the *Language Options* folder and run the .bat file. *Don't combine them and only use them once together with the base files.* --- **Source** 🗃️ Video and JPN Audio (JPN BDMV): **[[KoushinRip]](https://nyaa.si/view/1642939)** 🗃️ ENG Audio (WEB): **[[DragsterPS]](https://nyaa.si/view/1349225)** 🗃️ Subtitles: **[[DragsterPS]](https://nyaa.si/view/1349225)** **[[BitchWitch]](https://nyaa.si/view/1349016)** 💬 *Subtitles Info: [Netflix] Base [BitchWitch] OPED lyrics [Me] Edits, see notes* *Thank you all for making this possible <3* --- **Media Info** 🆔 **[Full Mediainfo incl. Encoder Settings](https://pastebin.com/jiLQnvWD)** ``` General Unique ID : 167390155077208681831215022504199460313 (0x7DEE2BD4260FC5DFE45AD342FAC215D9) Complete name : High-Rise Invasion - S01E01.mkv Format : Matroska Format version : Version 4 File size : 496 MiB Duration : 24 min 30 s Overall bit rate : 2 827 kb/s Encoded date : UTC 2023-10-14 15:47:35 Writing application : mkvmerge v72.0.0 ('Minuano (Six-eight)') 64-bit Writing library : libebml v1.4.4 + libmatroska v1.7.1 Attachments : CRONOSPRO-BOLD.OTF / MADE Mirage Bold PERSONAL USE.otf / Sinoreta_PERSONAL_USE_ONLY.otf Video ID : 1 Format : HEVC Format/Info : High Efficiency Video Coding Format profile : Main 10@L4@High Codec ID : V_MPEGH/ISO/HEVC Duration : 24 min 30 s Bit rate : 2 538 kb/s Width : 1 920 pixels Height : 1 080 pixels Display aspect ratio : 16:9 Frame rate mode : Constant Frame rate : 23.976 (24000/1001) FPS Color space : YUV Chroma subsampling : 4:2:0 Bit depth : 10 bits Bits/(Pixel*Frame) : 0.051 Stream size : 445 MiB (90%) Writing library : x265 3.5+37+12-4e46995bc:[Windows][MSVC 1931][64 bit] 10bit Encoding settings : <Check Link Above> Default : Yes Forced : No Audio #1 ID : 2 Format : AAC LC Format/Info : Advanced Audio Codec Low Complexity Codec ID : A_AAC-2 Duration : 24 min 28 s Bit rate : 162 kb/s Channel(s) : 2 channels Channel layout : L R Sampling rate : 48.0 kHz Frame rate : 46.875 FPS (1024 SPF) Compression mode : Lossy Stream size : 28.3 MiB (6%) Title : English Language : English Default : Yes Forced : No Audio #2 ID : 3 Format : Opus Codec ID : A_OPUS Duration : 24 min 30 s Bit rate : 121 kb/s Channel(s) : 2 channels Channel layout : L R Sampling rate : 48.0 kHz Frame rate : 50.000 FPS (960 SPF) Bit depth : 32 bits Compression mode : Lossy Stream size : 21.2 MiB (4%) Title : Japanese Language : Japanese Default : No Forced : No Text #1 ID : 4 Format : ASS Codec ID : S_TEXT/ASS Codec ID/Info : Advanced Sub Station Alpha Duration : 23 min 28 s Bit rate : 438 b/s Frame rate : 0.422 FPS Count of elements : 595 Compression mode : Lossless Stream size : 75.4 KiB (0%) Title : Signs & Songs Language : English Default : No Forced : Yes Text #2 ID : 5 Format : ASS Codec ID : S_TEXT/ASS Codec ID/Info : Advanced Sub Station Alpha Duration : 23 min 28 s Bit rate : 530 b/s Frame rate : 0.623 FPS Count of elements : 877 Compression mode : Lossless Stream size : 91.2 KiB (0%) Title : Dialogue Language : English Default : Yes Forced : No Menu 00:00:00.000 : :Intro 00:00:49.030 : :OP 00:02:19.120 : :Episode 00:22:59.940 : :ED ```

File list

  • [neoDESU] High-Rise Invasion [Season 1] [BD 1080p x265 HEVC OPUS AAC] [Dual Audio]
    • Language Options
      • 1. Make [Single Audio] English.bat (254 Bytes)
      • 2. Make [Single Audio] Japanese.bat (254 Bytes)
      • mkvmerge.exe (9.6 MiB)
      • readme.txt (511 Bytes)
    • High-Rise Invasion - S01E01.mkv (495.5 MiB)
    • High-Rise Invasion - S01E02.mkv (378.3 MiB)
    • High-Rise Invasion - S01E03.mkv (316.5 MiB)
    • High-Rise Invasion - S01E04.mkv (370.5 MiB)
    • High-Rise Invasion - S01E05.mkv (400.6 MiB)
    • High-Rise Invasion - S01E06.mkv (497.4 MiB)
    • High-Rise Invasion - S01E07.mkv (515.1 MiB)
    • High-Rise Invasion - S01E08.mkv (441.2 MiB)
    • High-Rise Invasion - S01E09.mkv (392.0 MiB)
    • High-Rise Invasion - S01E10.mkv (332.3 MiB)
    • High-Rise Invasion - S01E11.mkv (312.0 MiB)
    • High-Rise Invasion - S01E12.mkv (399.4 MiB)

neoborn (uploader)

User
Forgot the fonts on the last upload >_<
why is the English audio higher bitrate than the source linked? did you re-encode the already ass 128k NF audio?

neoborn (uploader)

User
**@RaptoR** You are right. I tried some new method for trimming and must have botched the commands.
can someone plz seed with 100% been stuck at 67%