[MagicStar] Ichiban Suki na Hana EP01 [WEBDL] [1080p] [FOD] [JPN_SUB]

Category:
Date:
2023-10-12 21:21 UTC
Submitter:
Seeders:
3
File size:
1.8 GiB
Completed:
1600
Info hash:
c0b35a365bdcafb8cd045041b3a6244b76744b73
HD 1080p from FOD. Japanese subtitles added. ![alt text](https://i.ibb.co/8DprWJK/98cef8c442102dca937c057e14c787ca649888c9ed16c775a1a8ad7a4d8128c4.jpg) ![alt text](https://i.ibb.co/2ss2h4m/Ichiban-Suki-na-Hana-EP01-1080p-FOD-WEB-DL-AAC2-0-H-264-Magic-Star-mkv.jpg) ``` General Unique ID : 89392396124999061946495959522074102853 (0x434059686EC39F1D479117A002DB0C45) Complete name : Ichiban.Suki.na.Hana.EP01.1080p.FOD.WEB-DL.AAC2.0.H.264-MagicStar.mkv Format : Matroska Format version : Version 4 File size : 1.78 GiB Duration : 1 h 1 min Overall bit rate mode : Variable Overall bit rate : 4 110 kb/s Frame rate : 29.970 FPS Encoded date : 2023-10-12 18:41:01 UTC Writing application : mkvmerge v50.0.0 ('Awakenings') 64-bit Writing library : libebml v1.4.0 + libmatroska v1.6.2 Video ID : 1 Format : AVC Format/Info : Advanced Video Codec Format profile : High@L4.1 Format settings : CABAC / 2 Ref Frames Format settings, CABAC : Yes Format settings, Reference fra : 2 frames Codec ID : V_MPEG4/ISO/AVC Duration : 1 h 1 min Bit rate mode : Variable Bit rate : 3 916 kb/s Maximum bit rate : 15.0 Mb/s Width : 1 920 pixels Height : 1 080 pixels Display aspect ratio : 16:9 Frame rate mode : Constant Frame rate : 29.970 (29970/1000) FPS Original frame rate : 29.970 (30000/1001) FPS Color space : YUV Chroma subsampling : 4:2:0 Bit depth : 8 bits Scan type : Progressive Bits/(Pixel*Frame) : 0.063 Stream size : 1.69 GiB (95%) Default : Yes Forced : No Color range : Limited Color primaries : BT.709 Transfer characteristics : BT.709 Matrix coefficients : BT.709 Audio ID : 2 Format : AAC LC Format/Info : Advanced Audio Codec Low Complexity Codec ID : A_AAC-2 Duration : 1 h 1 min Bit rate : 192 kb/s Channel(s) : 2 channels Channel layout : L R Sampling rate : 48.0 kHz Frame rate : 46.875 FPS (1024 SPF) Compression mode : Lossy Stream size : 85.0 MiB (5%) Title : 日本語 [オリジナル] Language : Japanese Default : Yes Forced : No ```

File list