[MagicStar] Jigen Daisuke 2023 [WEBDL] [1080p] [AMZN] [JPN_ENG_CHS_SUB]

Category:
Date:
2023-10-12 16:16 UTC
Submitter:
Seeders:
3
File size:
7.4 GiB
Completed:
1846
Info hash:
ee83e8585fa6cc6fd5b10076e6c98e27464b3289
HD 1080p from Prime Video. Use CBR bitrate mode. Japanese, English and Chinese subtitles added. ************** We are planning to upload all Prime Video Japan Dramas and Movies, we need your Support! ************** Support Us Ali (Zhifubao / QR code): https://i.ibb.co/FWV2ggm/1660626347125.png PayPalMe: https://www.paypal.com/paypalme/sakuragikenji ETH (ERC20): 0xea3286E176099E8C9aBaf25A0edf231374C04E89 USDT (BTC / OMNI): 1Lemw6fu5vG3NdvWGxDxsPX7T7yUb3rNzu ************** ![alt text](https://i.ibb.co/82bNGm1/4ebd8f81231ca4cc028b7ce063b4f2cb42942037644a1a9f27cae877e1c87e7c.jpg) ![alt text](https://i.ibb.co/FKtvVBt/0ad429de3db082afaa703d8d6301a61684726818d53cdb1040ad2fd0e2bd8a69.jpg) ![alt text](https://i.ibb.co/jr56TTt/183dc25bfa354f3d98eaed8c07330b1a98c663055219cbb1d54c5aa06d1dfccf.jpg) ![alt text](https://i.ibb.co/7ksSm97/Jigen-Daisuke-2023-1080p-AMZN-WEB-DL-DDP5-1-H-264-Magic-Star-mkv.jpg) ``` General Unique ID : 190377094429918729714376004880607194171 (0x8F394B70B9ADC490F30D7DC7CEEFAC3B) Complete name : Jigen.Daisuke.2023.1080p.AMZN.WEB-DL.DDP5.1.H.264-MagicStar.mkv Format : Matroska Format version : Version 4 File size : 7.39 GiB Duration : 2 h 0 min Overall bit rate mode : Constant Overall bit rate : 8 785 kb/s Frame rate : 24.000 FPS Encoded date : 2023-10-12 16:10:02 UTC Writing application : mkvmerge v50.0.0 ('Awakenings') 64-bit Writing library : libebml v1.4.0 + libmatroska v1.6.2 Cover : Yes Attachments : cover.png Video ID : 1 Format : AVC Format/Info : Advanced Video Codec Format profile : High@L4 Format settings : CABAC / 4 Ref Frames Format settings, CABAC : Yes Format settings, Reference fra : 4 frames Codec ID : V_MPEG4/ISO/AVC Duration : 2 h 0 min Bit rate mode : Constant Bit rate : 7 503 kb/s Nominal bit rate : 10 000 kb/s Width : 1 920 pixels Height : 1 040 pixels Display aspect ratio : 1.85:1 Frame rate mode : Constant Frame rate : 24.000 FPS Color space : YUV Chroma subsampling : 4:2:0 Bit depth : 8 bits Scan type : Progressive Bits/(Pixel*Frame) : 0.157 Stream size : 6.31 GiB (85%) Default : Yes Forced : No Color range : Limited Color primaries : BT.709 Transfer characteristics : BT.709 Matrix coefficients : BT.709 Audio #1 ID : 2 Format : E-AC-3 Format/Info : Enhanced AC-3 Commercial name : Dolby Digital Plus Codec ID : A_EAC3 Duration : 2 h 0 min Bit rate mode : Constant Bit rate : 640 kb/s Channel(s) : 6 channels Channel layout : L R C LFE Ls Rs Sampling rate : 48.0 kHz Frame rate : 31.250 FPS (1536 SPF) Compression mode : Lossy Stream size : 551 MiB (7%) Title : 日本語 [オリジナル] Language : Japanese Service kind : Complete Main Default : Yes Forced : No Audio #2 ID : 3 Format : E-AC-3 Format/Info : Enhanced AC-3 Commercial name : Dolby Digital Plus Codec ID : A_EAC3 Duration : 2 h 0 min Bit rate mode : Constant Bit rate : 640 kb/s Channel(s) : 6 channels Channel layout : L R C LFE Ls Rs Sampling rate : 48.0 kHz Frame rate : 31.250 FPS (1536 SPF) Compression mode : Lossy Stream size : 551 MiB (7%) Title : 日本語 [解説放送音声] Language : Japanese Service kind : Complete Main Default : No Forced : No ```

File list

  • [MagicStar] Jigen Daisuke 2023 [WEBDL] [1080p] [AMZN] [JPN_ENG_CHS_SUB]
    • Jigen.Daisuke.2023.1080p.AMZN.WEB-DL.DDP5.1.H.264-MagicStar.Chs.srt (53.5 KiB)
    • Jigen.Daisuke.2023.1080p.AMZN.WEB-DL.DDP5.1.H.264-MagicStar.Eng.srt (51.2 KiB)
    • Jigen.Daisuke.2023.1080p.AMZN.WEB-DL.DDP5.1.H.264-MagicStar.Jpn.srt (77.7 KiB)
    • Jigen.Daisuke.2023.1080p.AMZN.WEB-DL.DDP5.1.H.264-MagicStar.mkv (7.4 GiB)
Awesome, thank you so much. Can you please rip "Daughter of Lupin" off Amazon too?

MagicStar-subs (uploader)

User
@cosmicvibration Coming soon.