[MagicStar] Tasogare Yuusaku EP01 [WEBDL] [1080p] [JPN_SUB]

Category:
Date:
2023-10-08 00:09 UTC
Submitter:
Seeders:
0
Information:
Leechers:
0
File size:
952.5 MiB
Completed:
634
Info hash:
f6a7ccf4c5f2de8f949b799df6fa651807a2beb2
HD 1080p from TVer. Japanese subtitles added. ![alt text](https://i.ibb.co/sCGfbSQ/b100c7f-w1.jpg) ![alt text](https://i.ibb.co/kg5cwmN/Magic-Star-Tasogare-Yuusaku-EP01-WEBDL-1080p-mkv.jpg) ``` General Unique ID : 27376396154843887861430812767416298886 (0x1498808A703A1E5F07CB9B9E01412D86) Complete name : [MagicStar] Tasogare Yuusaku EP01 [WEBDL] [1080p].mkv Format : Matroska Format version : Version 4 File size : 952 MiB Duration : 46 min 8 s Overall bit rate mode : Variable Overall bit rate : 2 886 kb/s Frame rate : 29.970 FPS Encoded date : 2023-10-07 16:48:44 UTC Writing application : mkvmerge v50.0.0 ('Awakenings') 64-bit Writing library : libebml v1.4.0 + libmatroska v1.6.2 Video ID : 1 Format : AVC Format/Info : Advanced Video Codec Format profile : High@L4 Format settings : CABAC / 4 Ref Frames Format settings, CABAC : Yes Format settings, Reference fra : 4 frames Codec ID : V_MPEG4/ISO/AVC Duration : 46 min 8 s Bit rate mode : Variable Bit rate : 2 692 kb/s Maximum bit rate : 4 045 kb/s Width : 1 920 pixels Height : 1 080 pixels Display aspect ratio : 16:9 Frame rate mode : Constant Frame rate : 29.970 (29970/1000) FPS Original frame rate : 29.970 (30000/1001) FPS Color space : YUV Chroma subsampling : 4:2:0 Bit depth : 8 bits Scan type : Progressive Bits/(Pixel*Frame) : 0.043 Stream size : 888 MiB (93%) Default : Yes Forced : No Color range : Limited Color primaries : BT.709 Transfer characteristics : BT.709 Matrix coefficients : BT.709 Audio ID : 2 Format : AAC LC Format/Info : Advanced Audio Codec Low Complexity Codec ID : A_AAC-2 Duration : 46 min 8 s Bit rate : 192 kb/s Channel(s) : 2 channels Channel layout : L R Sampling rate : 48.0 kHz Frame rate : 46.875 FPS (1024 SPF) Compression mode : Lossy Stream size : 63.3 MiB (7%) Title : 日本語 [オリジナル] Language : Japanese Default : Yes Forced : No ```

File list

Thanks a lot MagicStar. what's the difference? [WEBDL] [1080p] [JPN_SUB] [HDTV] [1080p] [BS-TX] [JPN_SUB] I'm not good with codecs, just to know... have a nice Sunday and thanks again for your precious contributions.

MagicStar-subs (uploader)

User
@Zettaidame The bit rate of HDTV is usually higher than that of TVer's web source, the compression rate is low, and the video quality is relatively better, but the disadvantage is the channel watermark.
@MagicStar thanks for info, that make sense. [WEBDL] is perfect for me, I'll keep with it. all the best!