[neoDESU] Kubo Won't Let Me Be Invisible [Season 1] [BD 1080p x265 HEVC OPUS] Kubo-san wa Mob wo Yurusanai

Category:
Date:
2023-10-07 12:12 UTC
Submitter:
Seeders:
41
Information:
Leechers:
3
File size:
2.2 GiB
Completed:
2065
Info hash:
2073fe4a466dabd9dc1ba875b8e86dd9057052d3
![](https://i.lensdump.com/i/6BKULK.png) *Come hang out in **[Discord](https://discord.gg/47Q7FdB54e)*** #### **[Kubo Won't Let Me Be Invisible [Season 1]](https://myanimelist.net/anime/51815/Kubo-san_wa_Mob_wo_Yurusanai)** ▶️ **[Trailer](https://www.youtube.com/watch?v=uaC_wt8PwLc)** --- **Synopsis** Junta Shiraishi is a high school student with one simple goal—to enjoy his youth. However, achieving this goal is not so straightforward since Shiraishi is effectively invisible to his peers; even his teachers routinely fail to notice his presence. In fact, there is a rumor circulating that whoever manages to spot him will receive good luck. But there is one person who notices Shiraishi's presence without fail. Seated right next to him, Nagisa Kubo is determined not to let him quietly fade into the background. Unfortunately for him, this means that Shiraishi finds himself in some peculiar situations, all orchestrated by Kubo. Despite this, Kubo's playful antics might just be the catalyst needed to spark the thrilling youth that Shiraishi longs for. ![](https://a.l3n.co/i/qT2S6D.png) --- **Source** 🗃️ Video and JPN Audio (JPN BDMV): **[matheousse]** 🗃️ Subtitles: **[[RoS]](https://nyaa.si/view/1725439)** 💬 *Subtitles Info: [NovaWorks] EP 1-7 [RoS] EP 8-12* *Thank you all for making this possible <3* --- **Media Info** ``` General Unique ID : 153141366633114487432141553512289485520 (0x7335F451BE636F6272567B2535D942D0) Complete name : Kubo Won't Let Me Be Invisible - S01E01.mkv Format : Matroska Format version : Version 4 File size : 202 MiB Duration : 23 min 41 s Overall bit rate : 1 192 kb/s Encoded date : UTC 2023-10-07 11:21:45 Writing application : mkvmerge v72.0.0 ('Minuano (Six-eight)') 64-bit Writing library : libebml v1.4.4 + libmatroska v1.7.1 / Lavf60.3.100 Attachments : Aller-Bold.otf / BlueBrush.otf / Boom Tank.otf / CC AstronautsInTrouble.otf / DFEnKai Std W5.otf / DFTegakiSen Std W3.otf / DK Brush Crush.otf / Firepit.otf / Formata Regular.otf / FOT-RaglanPunch Std UB Strp.otf / GandhiSans-Bold.otf / GandhiSans-BoldItalic.otf / Kozuka Mincho Pro Strp H.otf / Tragic Marker.otf / Aller.ttf / AllThatMatters.ttf / Arial.ttf / Artifika.ttf / Azuki.ttf / Buxton Sketch.ttf / Candy Round BTN Bold.ttf / DFHanziPenW5-A.ttf / DK Crayon Crumble.ttf / Droid Sans.ttf / FOT-ComicReggae Std B.ttf / Futura Md BT.ttf / Iwata Mincho Pro M-Kami.ttf / Iwata Mincho Pro-Madoka L.ttf / Marker Scribbles.ttf / MTF Heart Doodle.ttf / PT Sans Bold.ttf / Quicksand Medium.ttf / Ranister.ttf / Roboto-Bold.ttf / Roboto-Medium.ttf / Roboto-Regular.ttf / Rosario-Regular.ttf / Throw My Hands Up In The Air Bold.ttf Video ID : 1 Format : HEVC Format/Info : High Efficiency Video Coding Format profile : Main 10@L4@High Codec ID : V_MPEGH/ISO/HEVC Duration : 23 min 41 s Bit rate : 938 kb/s Width : 1 920 pixels Height : 1 080 pixels Display aspect ratio : 16:9 Frame rate mode : Constant Frame rate : 23.976 (24000/1001) FPS Color space : YUV Chroma subsampling : 4:2:0 Bit depth : 10 bits Bits/(Pixel*Frame) : 0.019 Stream size : 159 MiB (79%) Writing library : x265 3.5+37+12-4e46995bc:[Windows][MSVC 1931][64 bit] 10bit Encoding settings : cpuid=1111039 / frame-threads=5 / numa-pools=32 / wpp / no-pmode / no-pme / no-psnr / no-ssim / log-level=2 / input-csp=1 / input-res=1920x1080 / interlace=0 / total-frames=182 / level-idc=40 / high-tier=1 / uhd-bd=0 / ref=5 / no-allow-non-conformance / no-repeat-headers / annexb / no-aud / no-eob / no-eos / no-hrd / info / hash=0 / no-temporal-layers / open-gop / min-keyint=23 / keyint=250 / gop-lookahead=0 / bframes=16 / b-adapt=2 / b-pyramid / bframe-bias=0 / rc-lookahead=120 / lookahead-slices=4 / scenecut=40 / no-hist-scenecut / radl=0 / no-splice / no-intra-refresh / ctu=64 / min-cu-size=8 / rect / no-amp / max-tu-size=32 / tu-inter-depth=1 / tu-intra-depth=1 / limit-tu=0 / rdoq-level=1 / dynamic-rd=0.00 / no-ssim-rd / signhide / no-tskip / nr-intra=0 / nr-inter=0 / no-constrained-intra / no-strong-intra-smoothing / max-merge=3 / limit-refs=3 / limit-modes / me=3 / subme=3 / merange=57 / temporal-mvp / no-frame-dup / no-hme / weightp / no-weightb / no-analyze-src-pics / deblock=-1:-1 / no-sao / no-sao-non-deblock / rd=4 / selective-sao=0 / no-early-skip / rskip / no-fast-intra / no-tskip-fast / no-cu-lossless / no-b-intra / no-splitrd-skip / rdpenalty=0 / psy-rd=1.50 / psy-rdoq=2.00 / no-rd-refine / no-lossless / cbqpoffs=0 / crqpoffs=0 / rc=crf / crf=22.0 / qcomp=0.60 / qpstep=4 / stats-write=0 / stats-read=0 / vbv-maxrate=30000 / vbv-bufsize=30000 / vbv-init=0.9 / min-vbv-fullness=50.0 / max-vbv-fullness=80.0 / crf-max=0.0 / crf-min=0.0 / ipratio=1.40 / pbratio=1.30 / aq-mode=3 / aq-strength=0.80 / aq-bias-strength=1.00 / cutree / zone-count=0 / no-strict-cbr / qg-size=32 / no-rc-grain / qpmax=69 / qpmin=0 / no-const-vbv / sar=0 / overscan=0 / videoformat=5 / range=0 / colorprim=2 / transfer=2 / colormatrix=2 / chromaloc=0 / display-window=0 / cll=0,0 / min-luma=0 / max-luma=1023 / log2-max-poc-lsb=8 / vui-timing-info / vui-hrd-info / slices=1 / no-opt-qp-pps / no-opt-ref-list-length-pps / no-multi-pass-opt-rps / scenecut-bias=0.05 / hist-threshold=0.03 / no-opt-cu-delta-qp / no-aq-motion / no-hdr10 / no-hdr10-opt / no-dhdr10-opt / no-idr-recovery-sei / analysis-reuse-level=0 / analysis-save-reuse-level=0 / analysis-load-reuse-level=0 / scale-factor=0 / refine-intra=0 / refine-inter=0 / refine-mv=1 / refine-ctu-distortion=0 / no-limit-sao / ctu-info=0 / no-lowpass-dct / refine-analysis-type=0 / copy-pic=1 / max-ausize-factor=1.0 / no-dynamic-refine / no-single-sei / no-hevc-aq / no-svt / no-field / qp-adaptation-range=1.00 / scenecut-aware-qp=0conformance-window-offsets / right=0 / bottom=0 / decoder-max-rate=0 / no-vbv-live-multi-pass Default : Yes Forced : No Audio ID : 2 Format : Opus Codec ID : A_OPUS Duration : 23 min 41 s Bit rate : 133 kb/s Channel(s) : 2 channels Channel layout : L R Sampling rate : 48.0 kHz Frame rate : 50.000 FPS (960 SPF) Bit depth : 32 bits Compression mode : Lossy Stream size : 22.6 MiB (11%) Title : Japanese Writing library : Lavc60.3.100 libopus Language : Japanese Default : Yes Forced : No Text ID : 3 Format : ASS Codec ID : S_TEXT/ASS Codec ID/Info : Advanced Sub Station Alpha Duration : 23 min 34 s Bit rate : 23.0 kb/s Frame rate : 8.513 FPS Count of elements : 12043 Compression mode : Lossless Stream size : 3.88 MiB (2%) Title : Dialogue Language : English Default : Yes Forced : No Menu 00:00:00.000 : en:Intro 00:01:44.020 : en:OP 00:03:13.985 : en:Part A 00:12:21.991 : en:Part B 00:22:09.995 : en:ED ```

File list

  • [neoDESU] Kubo Won't Let Me Be Invisible [Season 1] [BD 1080p x265 HEVC OPUS]
    • Kubo Won't Let Me Be Invisible - S01E01.mkv (202.0 MiB)
    • Kubo Won't Let Me Be Invisible - S01E02.mkv (201.0 MiB)
    • Kubo Won't Let Me Be Invisible - S01E03.mkv (177.8 MiB)
    • Kubo Won't Let Me Be Invisible - S01E04.mkv (192.5 MiB)
    • Kubo Won't Let Me Be Invisible - S01E05.mkv (194.6 MiB)
    • Kubo Won't Let Me Be Invisible - S01E06.mkv (187.8 MiB)
    • Kubo Won't Let Me Be Invisible - S01E07.mkv (205.2 MiB)
    • Kubo Won't Let Me Be Invisible - S01E08.mkv (196.0 MiB)
    • Kubo Won't Let Me Be Invisible - S01E09.mkv (194.6 MiB)
    • Kubo Won't Let Me Be Invisible - S01E10.mkv (184.2 MiB)
    • Kubo Won't Let Me Be Invisible - S01E11.mkv (166.4 MiB)
    • Kubo Won't Let Me Be Invisible - S01E12.mkv (179.9 MiB)