Sabagebu.Survival.Game.Club.S01.1080p.BluRay.10-Bit.FLAC2.0.x265-YURASUKA

Category:
Date:
2023-10-07 06:59 UTC
Submitter:
Seeders:
17
Information:
Leechers:
1
File size:
14.4 GiB
Completed:
414
Info hash:
435d500b2721c1de06c782d0671904382e78aeb9
Sabagebu! Survival Game Club (2014) A/V Source: UCCUSS@U2 (JPBD) Subtitles Source: [GS@Nyaa](https://nyaa.si/view/678061) [Anime-Koi] OVA Subtitles: [BDRIP@Nyaa](https://nyaa.si/view/767014) [Anime-Koi ep. 1-4, SabaSubs ep. 5-6] [Encode Comparison](https://slow.pics/c/wwAlPhdN) ``` Complete name : Sabagebu.Survival.Game.Club.S01E09.1080p.BluRay.10-Bit.FLAC2.0.x265-YURASUKA.mkv Format : Matroska Format version : Version 4 File size : 1.06 GiB Duration : 23 min 41 s Overall bit rate mode : Variable Overall bit rate : 6 391 kb/s Frame rate : 23.976 FPS Movie name : Sabagebu! - S01E09 - YURASUKA Encoded date : 2023-10-06 14:59:06 UTC Writing application : mkvmerge v79.0 ('Funeral Pyres') 64-bit Writing library : libebml v1.4.4 + libmatroska v1.7.1 Attachments : ArialRoundedMTStd-ExtraBold_4.otf / BPreplay.otf / Complete in Him_0.ttf / Copybook.TTF / Designosaur-Regular.ttf / FOT-HummingStd-v999.ttf / IwaMinPro-Md-Kami.ttf / LuxiSubSans-Bold.ttf / LuxiSubSans-BoldItalic.ttf / Sexy Love Hearts 2.ttf / SUPES.TTF / SWZ721H.ttf / trebuc.ttf / trebucbd.ttf Video ID : 1 Format : HEVC Format/Info : High Efficiency Video Coding Format profile : Main 10@L5@High Codec ID : V_MPEGH/ISO/HEVC Duration : 23 min 41 s Bit rate : 5 641 kb/s Width : 1 920 pixels Height : 1 080 pixels Display aspect ratio : 16:9 Frame rate mode : Constant Frame rate : 23.976 (24000/1001) FPS Color space : YUV Chroma subsampling : 4:2:0 Bit depth : 10 bits Bits/(Pixel*Frame) : 0.113 Stream size : 956 MiB (88%) Title : YURASUKA 1080p x265 Writing library : x265 3.5:[Linux][GCC 11.2.0][64 bit] 10bit Encoding settings : cpuid=1111039 / frame-threads=5 / numa-pools=32 / wpp / no-pmode / no-pme / no-psnr / no-ssim / log-level=2 / input-csp=1 / input-res=1920x1080 / interlace=0 / total-frames=0 / level-idc=0 / high-tier=1 / uhd-bd=0 / ref=6 / no-allow-non-conformance / no-repeat-headers / annexb / no-aud / no-hrd / info / hash=0 / no-temporal-layers / open-gop / min-keyint=1 / keyint=360 / gop-lookahead=0 / bframes=16 / b-adapt=2 / b-pyramid / bframe-bias=0 / rc-lookahead=72 / lookahead-slices=4 / scenecut=40 / hist-scenecut=0 / radl=0 / no-splice / no-intra-refresh / ctu=32 / min-cu-size=8 / rect / amp / max-tu-size=32 / tu-inter-depth=3 / tu-intra-depth=3 / limit-tu=4 / rdoq-level=2 / dynamic-rd=0.00 / no-ssim-rd / signhide / tskip / nr-intra=0 / nr-inter=0 / no-constrained-intra / strong-intra-smoothing / max-merge=5 / limit-refs=3 / limit-modes / me=3 / subme=7 / merange=57 / temporal-mvp / no-frame-dup / no-hme / weightp / weightb / analyze-src-pics / deblock=0:0 / no-sao / no-sao-non-deblock / rd=6 / selective-sao=0 / no-early-skip / rskip / no-fast-intra / no-tskip-fast / no-cu-lossless / b-intra / no-splitrd-skip / rdpenalty=0 / psy-rd=2.00 / psy-rdoq=2.00 / no-rd-refine / no-lossless / cbqpoffs=-2 / crqpoffs=-2 / rc=crf / crf=16.0 / qcomp=0.72 / qpstep=4 / stats-write=0 / stats-read=0 / vbv-maxrate=15000 / vbv-bufsize=30000 / vbv-init=0.9 / min-vbv-fullness=50.0 / max-vbv-fullness=80.0 / crf-max=0.0 / crf-min=0.0 / ipratio=1.40 / pbratio=1.30 / aq-mode=3 / aq-strength=0.85 / cutree / zone-count=0 / no-strict-cbr / qg-size=32 / no-rc-grain / qpmax=69 / qpmin=0 / no-const-vbv / sar=1 / overscan=0 / videoformat=5 / range=0 / colorprim=1 / transfer=1 / colormatrix=1 / chromaloc=0 / display-window=0 / cll=0,0 / min-luma=0 / max-luma=1023 / log2-max-poc-lsb=8 / vui-timing-info / vui-hrd-info / slices=1 / no-opt-qp-pps / no-opt-ref-list-length-pps / no-multi-pass-opt-rps / scenecut-bias=0.05 / hist-threshold=0.03 / no-opt-cu-delta-qp / no-aq-motion / no-hdr10 / no-hdr10-opt / no-dhdr10-opt / no-idr-recovery-sei / analysis-reuse-level=0 / analysis-save-reuse-level=0 / analysis-load-reuse-level=0 / scale-factor=0 / refine-intra=0 / refine-inter=0 / refine-mv=1 / refine-ctu-distortion=0 / no-limit-sao / ctu-info=0 / no-lowpass-dct / refine-analysis-type=0 / copy-pic=1 / max-ausize-factor=1.0 / no-dynamic-refine / no-single-sei / no-hevc-aq / no-svt / no-field / qp-adaptation-range=1.00 / scenecut-aware-qp=0conformance-window-offsets / right=0 / bottom=0 / decoder-max-rate=0 / no-vbv-live-multi-pass Language : Japanese Default : Yes Forced : No Color range : Limited Color primaries : BT.709 Transfer characteristics : BT.709 Matrix coefficients : BT.709 Audio ID : 2 Format : FLAC Format/Info : Free Lossless Audio Codec Codec ID : A_FLAC Duration : 23 min 41 s Bit rate mode : Variable Bit rate : 738 kb/s Channel(s) : 2 channels Channel layout : L R Sampling rate : 48.0 kHz Frame rate : 10.417 FPS (4608 SPF) Bit depth : 16 bits Compression mode : Lossless Stream size : 125 MiB (12%) Title : Japanese FLAC 2.0 Writing library : Lavf60.12.100 Language : Japanese Default : Yes Forced : No MD5 of the unencoded content : E1DC2F0E841DC8EB4A8308D7F3B32252 Text ID : 3 Format : ASS Codec ID : S_TEXT/ASS Codec ID/Info : Advanced Sub Station Alpha Duration : 23 min 39 s Bit rate : 1 778 b/s Frame rate : 1.905 FPS Count of elements : 2704 Compression mode : Lossless Stream size : 308 KiB (0%) Title : English Subtitles [Anime-Koi] Language : English Default : Yes Forced : No Menu 00:00:00.000 : en:Prologue 00:00:17.017 : en:Opening Song ("YES!") 00:01:47.023 : en:Part A (Tale of the Doggypus) 00:07:23.943 : en:Part B (Pool Closest to Heaven) 00:14:23.988 : en:Part C (MAD Grannies X) 00:21:54.980 : en:Ending Song ("Piti Pati Sabaibaado" ) 00:23:25.876 : en:Preview ``` Dead end for a sucker that’s a sucker like me. 私のようなカモの行き止まりです。

File list

  • Sabagebu.Survival.Game.Club.S01.1080p.BluRay.10-Bit.FLAC2.0.x265-YURASUKA
    • Specials
      • Sabagebu.Survival.Game.Club.S00E01.1080p.BluRay.10-Bit.FLAC2.0.x265-YURASUKA.mkv (580.4 MiB)
      • Sabagebu.Survival.Game.Club.S00E02.1080p.BluRay.10-Bit.FLAC2.0.x265-YURASUKA.mkv (439.7 MiB)
      • Sabagebu.Survival.Game.Club.S00E03.1080p.BluRay.10-Bit.FLAC2.0.x265-YURASUKA.mkv (441.4 MiB)
      • Sabagebu.Survival.Game.Club.S00E04.1080p.BluRay.10-Bit.FLAC2.0.x265-YURASUKA.mkv (454.3 MiB)
      • Sabagebu.Survival.Game.Club.S00E05.1080p.BluRay.10-Bit.FLAC2.0.x265-YURASUKA.mkv (465.4 MiB)
      • Sabagebu.Survival.Game.Club.S00E06.1080p.BluRay.10-Bit.FLAC2.0.x265-YURASUKA.mkv (519.9 MiB)
    • Sabagebu.Survival.Game.Club.S01E01.1080p.BluRay.10-Bit.FLAC2.0.x265-YURASUKA.mkv (1018.7 MiB)
    • Sabagebu.Survival.Game.Club.S01E02.1080p.BluRay.10-Bit.FLAC2.0.x265-YURASUKA.mkv (1.0 GiB)
    • Sabagebu.Survival.Game.Club.S01E03.1080p.BluRay.10-Bit.FLAC2.0.x265-YURASUKA.mkv (1.0 GiB)
    • Sabagebu.Survival.Game.Club.S01E04.1080p.BluRay.10-Bit.FLAC2.0.x265-YURASUKA.mkv (848.7 MiB)
    • Sabagebu.Survival.Game.Club.S01E05.1080p.BluRay.10-Bit.FLAC2.0.x265-YURASUKA.mkv (1016.8 MiB)
    • Sabagebu.Survival.Game.Club.S01E06.1080p.BluRay.10-Bit.FLAC2.0.x265-YURASUKA.mkv (814.6 MiB)
    • Sabagebu.Survival.Game.Club.S01E07.1080p.BluRay.10-Bit.FLAC2.0.x265-YURASUKA.mkv (994.6 MiB)
    • Sabagebu.Survival.Game.Club.S01E08.1080p.BluRay.10-Bit.FLAC2.0.x265-YURASUKA.mkv (1.0 GiB)
    • Sabagebu.Survival.Game.Club.S01E09.1080p.BluRay.10-Bit.FLAC2.0.x265-YURASUKA.mkv (1.1 GiB)
    • Sabagebu.Survival.Game.Club.S01E10.1080p.BluRay.10-Bit.FLAC2.0.x265-YURASUKA.mkv (958.2 MiB)
    • Sabagebu.Survival.Game.Club.S01E11.1080p.BluRay.10-Bit.FLAC2.0.x265-YURASUKA.mkv (1.0 GiB)
    • Sabagebu.Survival.Game.Club.S01E12.1080p.BluRay.10-Bit.FLAC2.0.x265-YURASUKA.mkv (947.2 MiB)