[MagicStar] Kinou Nani Tabeta? Season2 EP01 [WEBDL] [1080p]

Category:
Date:
2023-10-06 16:12 UTC
Submitter:
Seeders:
2
File size:
626.2 MiB
Completed:
1197
Info hash:
5c731a6e342996067a3b471834a8b1acb53190bf
HD 1080p from TVer. ![alt text](https://i.ibb.co/GCFmBQk/1000664-003.jpg) ![alt text](https://i.ibb.co/56s0zy6/Magic-Star-Kinou-Nani-Tabeta-Season2-EP01-WEBDL-1080p-mkv.jpg) ``` General Unique ID : 272858635502004962253708364310883919382 (0xCD46A9633113C4C72F4D1E67A8E0E616) Complete name : [MagicStar] Kinou Nani Tabeta? Season2 EP01 [WEBDL] [1080p].mkv Format : Matroska Format version : Version 4 File size : 626 MiB Duration : 30 min 23 s Overall bit rate mode : Variable Overall bit rate : 2 881 kb/s Frame rate : 29.970 FPS Encoded date : 2023-10-06 16:08:32 UTC Writing application : mkvmerge v50.0.0 ('Awakenings') 64-bit Writing library : libebml v1.4.0 + libmatroska v1.6.2 Video ID : 1 Format : AVC Format/Info : Advanced Video Codec Format profile : High@L4 Format settings : CABAC / 4 Ref Frames Format settings, CABAC : Yes Format settings, Reference fra : 4 frames Codec ID : V_MPEG4/ISO/AVC Duration : 30 min 23 s Bit rate mode : Variable Bit rate : 2 688 kb/s Maximum bit rate : 4 045 kb/s Width : 1 920 pixels Height : 1 080 pixels Display aspect ratio : 16:9 Frame rate mode : Constant Frame rate : 29.970 (29970/1000) FPS Original frame rate : 29.970 (30000/1001) FPS Color space : YUV Chroma subsampling : 4:2:0 Bit depth : 8 bits Scan type : Progressive Bits/(Pixel*Frame) : 0.043 Stream size : 584 MiB (93%) Default : Yes Forced : No Color range : Limited Color primaries : BT.709 Transfer characteristics : BT.709 Matrix coefficients : BT.709 Audio ID : 2 Format : AAC LC Format/Info : Advanced Audio Codec Low Complexity Codec ID : A_AAC-2 Duration : 30 min 23 s Bit rate : 192 kb/s Channel(s) : 2 channels Channel layout : L R Sampling rate : 48.0 kHz Frame rate : 46.875 FPS (1024 SPF) Compression mode : Lossy Stream size : 41.4 MiB (7%) Title : 日本語 [オリジナル] Language : Japanese Default : Yes Forced : No ```

File list