Attack.on.Titan.S04Part01.2020.and.S04Part02.2022.Bluray.REMUX.1080p.TRUHD.51.AC351.TRUHD20.AC320.Eng+Jap.EngSubs

Category:
Date:
2023-09-29 07:16 UTC
Submitter:
Seeders:
15
File size:
207.3 GiB
Completed:
614
Info hash:
84157fc41463ed88085bf25dfb438a8863b1aa9e
![Attack.on.Titan.S04Part01](https://external-content.duckduckgo.com/iu/?u=https%3A%2F%2Ftse4.mm.bing.net%2Fth%3Fid%3DOIP.deSvlCOuCM5ZlElRout1GgHaEK%26pid%3DApi&f=1&ipt=1d6b67eb4738a569aefd1d20dbee06557245a48df6f8a81c48f3ad0d5560e6ab&ipo=images "Attack.on.Titan.S04Part01") **Attack.on.Titan.S04Part01 and S04Part02.Bluray.REMUX.1080p.TRUHD.51.AC351.TRUHD20.AC320.Eng+Jap.EngSubs** https://www.imdb.com/title/tt2560140/episodes/?season=4 https://attackontitan.fandom.com/wiki/List_of_Attack_on_Titan_episodes **IM RELEASING THESE REMUXES BECAUSE ALL THE OTHER REMUX VERSIONS ON NYAA ARE SO HAPHAZARD AND BADLY SEEDED** Once Im done all S01-S04Part01 and S04Part02 REMUX will be up and seeded on my seedbox forever. This is the complete Season S04Part01 and S04Part02 including extras from the Blu-rays remuxed from Blu-ray by Zanros. Check the fandom link above for more info. You can find BluRay REMUXES S01 S02 and S03 similarly named on NYAA. If You dont find them its because Im still working on this huge batch. Check back. I will soon have them all up. ___________________________________________ **Attack on Titan The FINAL Season S04Part01 2020 and S04Part02 2022 (Shingeki no Kyojin)** For centuries, humanity has been hunted by giant, mysterious predators known as the Titans. Three mighty walls—Wall Maria, Rose, and Sheena—provided peace and protection for humanity for over a hundred years. That peace, however, was shattered when the Colossal Titan and Armored Titan appeared and destroyed the outermost wall, Wall Maria. Forced to retreat behind Wall Rose, humanity waited with bated breath for the Titans to reappear and destroy their safe haven once more. Gabi Braun and Falco Grice have been training their entire lives to inherit one of the seven Titans under Marley's control and aid their nation in eradicating the Eldians on Paradis. However, just as all seems well for the two cadets, their peace is suddenly shaken by the arrival of Eren Yeager and the remaining members of the Survey Corps. Having finally reached the Yeager family basement and learned about the dark history surrounding the Titans, the Survey Corps has at long last found the answer they so desperately fought to uncover. With the truth now in their hands, the group set out for the world beyond the walls. In Shingeki no Kyojin: The Final Season 2020, two utterly different worlds collide as each party pursues its own agenda in the long-awaited conclusion to Paradis' fight for freedom. [Written by MAL Rewrite] Aired: Dec 7, 2020 to Mar 29, 2021 _______________________________ In The Final Season 2022 Turning against his former allies and enemies alike, Eren Yeager sets a disastrous plan in motion. Under the guidance of the Beast Titan, Zeke, Eren takes extreme measures to end the ancient conflict between Marley and Eldia—but his true intentions remain a mystery. Delving deep into his family's past, Eren fights to control his own destiny. Meanwhile, the long-feuding nations of Marley and Eldia utilize both soldiers and Titans in a brutal race to eliminate the other. Reiner Braun uses his own powers in a desperate bid to hold off Eren's own militaristic force, and his fellow Eldians—children Falco Grice and Gabi Braun—struggle to survive in the unfolding chaos. Elsewhere, Eren's childhood friends Mikasa Ackerman and Armin Arlert remain imprisoned alongside Eren's former Survey Corps companions, all disturbed by Eren's monstrous transformation. Under the blind belief that Eren still secretly harbors good intentions, Mikasa and the others enter the fray in an attempt to save their friend's very soul. [Written by MAL Rewrite] Aired: Jan 10, 2022 to Apr 4, 2022 Genres: Action, Drama, Suspense Themes: Gore, Military, Survival Duration: 24 min Rating: R - 17+ (violence & profanity) __________________________________________ MediaInfo: General Unique ID : 70827600094352061917310587578613328924 (0x3548E64B99DB04F1F791593D0C396C1C) Complete name : Attack on Titan S04E01 2020 Bluray 1080p TRUEHD 5.1 Hybrid-REMUX Dual Audio -ZR-.mkv Format : Matroska Format version : Version 4 File size : 6.40 GiB Duration : 24 min 2 s Overall bit rate mode : Variable Overall bit rate : 38.1 Mb/s Frame rate : 23.976 FPS Encoded date : 2022-02-26 19:38:49 UTC Writing application : mkvmerge v29.0.0 ('Like It Or Not') 32-bit Writing library : libebml v1.3.6 + libmatroska v1.4.9 Attachments : ANGIE-BOLDITALIC.TTF / BSOD.TTF / CLEARFACESSIBOLD.TTF / GAR-A-MONDTALL-LIGHT.TTF / KINESISSTD-BLACKITALIC.OTF / AGARAMONDPRO-REGULAR.OTF / ANGIE-BOLD.TTF / Roboto-Medium.ttf / Roboto-MediumItalic.ttf / arial.ttf / arialbd.ttf / comic.ttf / comicbd.ttf / times.ttf / timesbd.ttf / trebuc.ttf / trebucbd.ttf / verdana.ttf / verdanab.ttf Video ID : 1 Format : AVC Format/Info : Advanced Video Codec Format profile : High@L4.1 Format settings : CABAC / 4 Ref Frames Format settings, CABAC : Yes Format settings, Reference frames : 4 frames Codec ID : V_MPEG4/ISO/AVC Duration : 23 min 56 s Bit rate mode : Variable Bit rate : 34.3 Mb/s Maximum bit rate : 39.5 Mb/s Width : 1 920 pixels Height : 1 080 pixels Display aspect ratio : 16:9 Frame rate mode : Constant Frame rate : 23.976 (24000/1001) FPS Color space : YUV Chroma subsampling : 4:2:0 Bit depth : 8 bits Scan type : Progressive Bits/(Pixel*Frame) : 0.690 Stream size : 5.74 GiB (90%) Default : Yes Forced : No Audio #1 ID : 2 Format : MLP FBA Format/Info : Meridian Lossless Packing FBA Commercial name : Dolby TrueHD Codec ID : A_TRUEHD Duration : 23 min 56 s Bit rate mode : Variable Bit rate : 1 740 kb/s Maximum bit rate : 2 784 kb/s Channel(s) : 6 channels Channel layout : L R C LFE Ls Rs Sampling rate : 48.0 kHz Frame rate : 1 200.000 FPS (40 SPF) Compression mode : Lossless Delay relative to video : -1 ms Stream size : 298 MiB (5%) Title : Surround 5.1 Language : English Default : Yes Forced : No Audio #2 ID : 3 Format : AC-3 Format/Info : Audio Coding 3 Commercial name : Dolby Digital Codec ID : A_AC3 Duration : 23 min 56 s Bit rate mode : Constant Bit rate : 448 kb/s Channel(s) : 6 channels Channel layout : L R C LFE Ls Rs Sampling rate : 48.0 kHz Frame rate : 31.250 FPS (1536 SPF) Compression mode : Lossy Delay relative to video : 23 ms Stream size : 76.7 MiB (1%) Title : Surround 5.1 Language : English Service kind : Complete Main Default : No Forced : No Audio #3 ID : 4 Format : MLP FBA Format/Info : Meridian Lossless Packing FBA Commercial name : Dolby TrueHD Codec ID : A_TRUEHD Duration : 23 min 56 s Bit rate mode : Variable Bit rate : 1 192 kb/s Maximum bit rate : 1 611 kb/s Channel(s) : 2 channels Channel layout : L R Sampling rate : 48.0 kHz Frame rate : 1 200.000 FPS (40 SPF) Compression mode : Lossless Delay relative to video : -1 ms Stream size : 204 MiB (3%) Title : Stereo Language : Japanese Default : No Forced : No Audio #4 ID : 5 Format : AC-3 Format/Info : Audio Coding 3 Commercial name : Dolby Digital Codec ID : A_AC3 Duration : 23 min 56 s Bit rate mode : Constant Bit rate : 192 kb/s Channel(s) : 2 channels Channel layout : L R Sampling rate : 48.0 kHz Frame rate : 31.250 FPS (1536 SPF) Compression mode : Lossy Delay relative to video : 23 ms Stream size : 32.9 MiB (1%) Title : Stereo Language : Japanese Service kind : Complete Main Default : No Forced : No Text #1 ID : 6 Format : PGS Codec ID : S_HDMV/PGS Codec ID/Info : Picture based subtitle format used on BDs/HD-DVDs Duration : 23 min 46 s Bit rate : 35.6 kb/s Frame rate : 0.323 FPS Count of elements : 460 Stream size : 6.06 MiB (0%) Language : English Default : No Forced : No Text #2 ID : 7 Format : ASS Codec ID : S_TEXT/ASS Codec ID/Info : Advanced Sub Station Alpha Duration : 20 min 0 s Bit rate : 94.9 kb/s Frame rate : 10.039 FPS Count of elements : 12054 Compression mode : Lossless Stream size : 13.6 MiB (0%) Title : Signs & Songs Language : English Default : Yes Forced : No Text #3 ID : 8 Format : ASS Codec ID : S_TEXT/ASS Codec ID/Info : Advanced Sub Station Alpha Duration : 23 min 46 s Bit rate : 80.0 kb/s Frame rate : 8.629 FPS Count of elements : 12308 Compression mode : Lossless Stream size : 13.6 MiB (0%) Title : DDY Language : English Default : No Forced : No Text #4 ID : 9 Format : ASS Codec ID : S_TEXT/ASS Codec ID/Info : Advanced Sub Station Alpha Duration : 23 min 53 s Bit rate : 78 b/s Frame rate : 0.166 FPS Count of elements : 238 Compression mode : Lossless Stream size : 13.8 KiB (0%) Title : English subs Language : English Default : No Forced : No Menu 00:00:00.033 : en:Intro 00:03:28.180 : en:OP 00:04:58.020 : en:Part A 00:13:56.020 : en:Part B 00:22:57.270 : en:ED 00:23:39.980 : en:Preview ___________________ >>>As Always, If you enjoy my releases please help seed as much as possible. I only have 100Mbit seed ability so any help you can give is GREATLY appreciated by me as well as others who get to enjoy my torrents thanks to your help, . YOUR COMMENTS ARE ALWAYS WELCOME. Cheers>>

File list

  • Attack on Titan S04 Bluray 1080p TRUEHD 5.1 Hybrid-REMUX Dual Audio
    • Extra's
      • Attack on Titan Final Season Part 1 Staff Discussion.mkv (5.5 GiB)
      • Attack on Titan Final Season Part 1 Voice Actor Panel.mkv (7.4 GiB)
      • Attack on Titan Final Season Part 1 sDCG Animation.mkv (623.6 MiB)
      • Attack on Titan Final Season Part 2 Voice Actor Panel.mkv (9.5 GiB)
      • Attack on Titan S00E36 (Attack on Titan Chibi Theater 1).mkv (944.2 MiB)
      • Attack on Titan S00E37 (Attack on Titan Chibi Theater 2).mkv (853.0 MiB)
      • NCED #01.mkv (326.6 MiB)
      • NCED #02 For P2.mkv (415.7 MiB)
      • NCOP #01.mkv (314.7 MiB)
      • NCOP #02 For P2.mkv (408.8 MiB)
    • Attack on Titan S04E01 2020 Bluray 1080p TRUEHD 5.1 Hybrid-REMUX Dual Audio -ZR-.mkv (6.4 GiB)
    • Attack on Titan S04E02 2020 Bluray 1080p TRUEHD 5.1 Hybrid-REMUX Dual Audio -ZR-.mkv (6.3 GiB)
    • Attack on Titan S04E03 2020 Bluray 1080p TRUEHD 5.1 Hybrid-REMUX Dual Audio -ZR-.mkv (6.3 GiB)
    • Attack on Titan S04E04 2020 Bluray 1080p TRUEHD 5.1 Hybrid-REMUX Dual Audio -ZR-.mkv (6.3 GiB)
    • Attack on Titan S04E05 2020 Bluray 1080p TRUEHD 5.1 Hybrid-REMUX Dual Audio -ZR-.mkv (6.3 GiB)
    • Attack on Titan S04E06 2020 Bluray 1080p TRUEHD 5.1 Hybrid-REMUX Dual Audio -ZR-.mkv (6.4 GiB)
    • Attack on Titan S04E07 2020 Bluray 1080p TRUEHD 5.1 Hybrid-REMUX Dual Audio -ZR-.mkv (6.4 GiB)
    • Attack on Titan S04E08 2020 Bluray 1080p TRUEHD 5.1 Hybrid-REMUX Dual Audio -ZR-.mkv (6.3 GiB)
    • Attack on Titan S04E09 2020 Bluray 1080p TRUEHD 5.1 Hybrid-REMUX Dual Audio -ZR-.mkv (6.3 GiB)
    • Attack on Titan S04E10 2020 Bluray 1080p TRUEHD 5.1 Hybrid-REMUX Dual Audio -ZR-.mkv (6.3 GiB)
    • Attack on Titan S04E11 2020 Bluray 1080p TRUEHD 5.1 Hybrid-REMUX Dual Audio -ZR-.mkv (6.3 GiB)
    • Attack on Titan S04E12 2020 Bluray 1080p TRUEHD 5.1 Hybrid-REMUX Dual Audio -ZR-.mkv (6.3 GiB)
    • Attack on Titan S04E13 2020 Bluray 1080p TRUEHD 5.1 Hybrid-REMUX Dual Audio -ZR-.mkv (6.3 GiB)
    • Attack on Titan S04E14 2020 Bluray 1080p TRUEHD 5.1 Hybrid-REMUX Dual Audio -ZR-.mkv (6.3 GiB)
    • Attack on Titan S04E15 2020 Bluray 1080p TRUEHD 5.1 Hybrid-REMUX Dual Audio -ZR-.mkv (6.3 GiB)
    • Attack on Titan S04E16 2020 Bluray 1080p TRUEHD 5.1 Hybrid-REMUX Dual Audio -ZR-.mkv (6.3 GiB)
    • Attack on Titan S04E17 2022 Bluray 1080p TRUEHD 5.1 Hybrid-REMUX Dual Audio -ZR-.mkv (6.7 GiB)
    • Attack on Titan S04E18 2022 Bluray 1080p TRUEHD 5.1 Hybrid-REMUX Dual Audio -ZR-.mkv (6.7 GiB)
    • Attack on Titan S04E19 2022 Bluray 1080p TRUEHD 5.1 Hybrid-REMUX Dual Audio -ZR-.mkv (6.6 GiB)
    • Attack on Titan S04E20 2022 Bluray 1080p TRUEHD 5.1 Hybrid-REMUX Dual Audio -ZR-.mkv (6.6 GiB)
    • Attack on Titan S04E21 2022 Bluray 1080p TRUEHD 5.1 Hybrid-REMUX Dual Audio -ZR-.mkv (6.7 GiB)
    • Attack on Titan S04E22 2022 Bluray 1080p TRUEHD 5.1 Hybrid-REMUX Dual Audio -ZR-.mkv (6.7 GiB)
    • Attack on Titan S04E23 2022 Bluray 1080p TRUEHD 5.1 Hybrid-REMUX Dual Audio -ZR-.mkv (6.6 GiB)
    • Attack on Titan S04E24 2022 Bluray 1080p TRUEHD 5.1 Hybrid-REMUX Dual Audio -ZR-.mkv (6.6 GiB)
    • Attack on Titan S04E25 2022 Bluray 1080p TRUEHD 5.1 Hybrid-REMUX Dual Audio -ZR-.mkv (6.6 GiB)
    • Attack on Titan S04E26 2022 Bluray 1080p TRUEHD 5.1 Hybrid-REMUX Dual Audio -ZR-.mkv (6.7 GiB)
    • Attack on Titan S04E27 2022 Bluray 1080p TRUEHD 5.1 Hybrid-REMUX Dual Audio -ZR-.mkv (6.7 GiB)
    • Attack on Titan S04E28 2022 Bluray 1080p TRUEHD 5.1 Hybrid-REMUX Dual Audio -ZR-.mkv (6.6 GiB)