Attack.on.Titan.S03.Bluray.REMUX.1080p.TRUHD.51.AC351.TRUHD20.AC320.Eng+Jap.EngSubs

Category:
Date:
2023-09-28 23:41 UTC
Submitter:
Seeders:
31
File size:
167.1 GiB
Completed:
1274
Info hash:
5f14c79de3c3d78dff10360ee4d3b13f381698af
![Attack.on.Titan.S03](https://external-content.duckduckgo.com/iu/?u=https%3A%2F%2Ftse4.mm.bing.net%2Fth%3Fid%3DOIP.xgF5_TxR0-8NWA0AVin7gAHaEd%26pid%3DApi&f=1&ipt=a1f733b9c38068875a4a8299a832f7ab1d4b6bb48fdebf1a733a8eebef2ef34b&ipo=images "Attack.on.Titan.S03") **Attack.on.Titan.S03.Bluray.REMUX.1080p.TRUHD.51.AC351.TRUHD20.AC320.Eng+Jap.EngSubs** https://www.imdb.com/title/tt2560140/episodes/?season=3 https://attackontitan.fandom.com/wiki/List_of_Attack_on_Titan_episodes **IM RELEASING THESE REMUXES BECAUSE ALL THE OTHER REMUX VERSIONS ON NYAA ARE SO HAPHAZARD AND BADLY SEEDED** Once Im done all S01-S04Part01 and S04Part02 REMUX will be up and seeded on my seedbox forever. This is the complete Season 3 including extras from the Blu-rays remuxed from Blu-ray by Zanros. Check the fandom link above for more info. You can find BluRay REMUXES S01 S02 and S04Part01 and 02 similarly named on NYAA. If You dont find them its because Im still working on this huge batch. Check back. I will soon have them all up. ___________________________________________ **Attack on Titan S03 (Shingeki no Kyojin)** For centuries, humanity has been hunted by giant, mysterious predators known as the Titans. Three mighty walls—Wall Maria, Rose, and Sheena—provided peace and protection for humanity for over a hundred years. That peace, however, was shattered when the Colossal Titan and Armored Titan appeared and destroyed the outermost wall, Wall Maria. Forced to retreat behind Wall Rose, humanity waited with bated breath for the Titans to reappear and destroy their safe haven once more. In Shingeki no Kyojin Season 3, Still threatened by the "Titans" that rob them of their freedom, mankind remains caged inside the two remaining walls. Efforts to eradicate these monsters continue; however, threats arise not only from the Titans beyond the walls, but from the humans within them as well. After being rescued from the Colossal and Armored Titans, Eren Yaeger devotes himself to improving his Titan form. Krista Lenz struggles to accept the loss of her friend, Captain Levi chooses Eren and his friends to form his new personal squad, and Commander Erwin Smith recovers from his injuries. All seems well for the soldiers, until the government suddenly demands custody of Eren and Krista. The Survey Corps' recent successes have drawn attention, and a familiar face from Levi's past is sent to collect the wanted soldiers. Sought after by the government, Levi and his new squad must evade their adversaries in hopes of keeping Eren and Krista safe. Eren and his fellow soldiers are not only fighting for their survival against the terrifying Titans, but also against the terror of a far more conniving foe: their fellow humans. [Written by MAL Rewrite] Aired: Jul 23, 2018 to Oct 15, 2018 Genres: Action, Drama, Suspense Themes: Gore, Military, Survival Duration: 24 min Rating: R - 17+ (violence & profanity) __________________________________________ MediaInfo: General Unique ID : 24412344663515328329540206143030028151 (0x125DA584F50E3EDD7118252D144DE777) Complete name : Attack on Titan S03E01 2018 Bluray 1080p TRUEHD 5.1 Hybrid-REMUX Dual Audio -ZR-.mkv Format : Matroska Format version : Version 4 File size : 6.59 GiB Duration : 23 min 56 s Overall bit rate mode : Variable Overall bit rate : 39.4 Mb/s Frame rate : 23.976 FPS Encoded date : 2019-08-14 07:05:31 UTC Writing application : mkvmerge v29.0.0 ('Like It Or Not') 32-bit Writing library : libebml v1.3.6 + libmatroska v1.4.9 Attachments : ANGIE-BOLD.TTF / ANGIE-BOLDITALIC.TTF / CLEARFACESSIBOLD.TTF / KINESISSTD-BLACKITALIC.OTF / AGARAMONDPRO-REGULAR.OTF Video ID : 1 Format : AVC Format/Info : Advanced Video Codec Format profile : High@L4.1 Format settings : CABAC / 4 Ref Frames Format settings, CABAC : Yes Format settings, Reference frames : 4 frames Codec ID : V_MPEG4/ISO/AVC Duration : 23 min 56 s Bit rate mode : Variable Bit rate : 36.1 Mb/s Maximum bit rate : 38.0 Mb/s Width : 1 920 pixels Height : 1 080 pixels Display aspect ratio : 16:9 Frame rate mode : Constant Frame rate : 23.976 (24000/1001) FPS Color space : YUV Chroma subsampling : 4:2:0 Bit depth : 8 bits Scan type : Progressive Bits/(Pixel*Frame) : 0.727 Stream size : 6.04 GiB (92%) Default : Yes Forced : No Audio #1 ID : 2 Format : MLP FBA Format/Info : Meridian Lossless Packing FBA Commercial name : Dolby TrueHD Codec ID : A_TRUEHD Duration : 23 min 56 s Bit rate mode : Variable Bit rate : 1 384 kb/s Maximum bit rate : 2 880 kb/s Channel(s) : 6 channels Channel layout : L R C LFE Ls Rs Sampling rate : 48.0 kHz Frame rate : 1 200.000 FPS (40 SPF) Compression mode : Lossless Stream size : 237 MiB (4%) Title : Surround 5.1 Language : English Default : Yes Forced : No Audio #2 ID : 3 Format : AC-3 Format/Info : Audio Coding 3 Commercial name : Dolby Digital Codec ID : A_AC3 Duration : 23 min 56 s Bit rate mode : Constant Bit rate : 448 kb/s Channel(s) : 6 channels Channel layout : L R C LFE Ls Rs Sampling rate : 48.0 kHz Frame rate : 31.250 FPS (1536 SPF) Compression mode : Lossy Delay relative to video : 24 ms Stream size : 76.7 MiB (1%) Title : Surround 5.1 Language : English Service kind : Complete Main Default : No Forced : No Audio #3 ID : 4 Format : MLP FBA Format/Info : Meridian Lossless Packing FBA Commercial name : Dolby TrueHD Codec ID : A_TRUEHD Duration : 23 min 56 s Bit rate mode : Variable Bit rate : 1 107 kb/s Maximum bit rate : 1 653 kb/s Channel(s) : 2 channels Channel layout : L R Sampling rate : 48.0 kHz Frame rate : 1 200.000 FPS (40 SPF) Compression mode : Lossless Stream size : 189 MiB (3%) Title : Stereo Language : Japanese Default : No Forced : No Audio #4 ID : 5 Format : AC-3 Format/Info : Audio Coding 3 Commercial name : Dolby Digital Codec ID : A_AC3 Duration : 23 min 56 s Bit rate mode : Constant Bit rate : 192 kb/s Channel(s) : 2 channels Channel layout : L R Sampling rate : 48.0 kHz Frame rate : 31.250 FPS (1536 SPF) Compression mode : Lossy Delay relative to video : 24 ms Stream size : 32.9 MiB (0%) Title : Stereo Language : Japanese Service kind : Complete Main Default : No Forced : No Text #1 ID : 6 Format : ASS Codec ID : S_TEXT/ASS Codec ID/Info : Advanced Sub Station Alpha Duration : 23 min 6 s Bit rate : 7 659 b/s Frame rate : 0.337 FPS Count of elements : 467 Compression mode : Lossless Stream size : 1.27 MiB (0%) Title : Signs [DDY] Language : English Default : Yes Forced : No Text #2 ID : 7 Format : PGS Muxing mode : zlib Codec ID : S_HDMV/PGS Codec ID/Info : Picture based subtitle format used on BDs/HD-DVDs Duration : 23 min 40 s Bit rate : 47.2 kb/s Frame rate : 0.483 FPS Count of elements : 686 Stream size : 7.99 MiB (0%) Language : English Default : No Forced : No Menu 00:00:00.000 : en:Chapter 01 00:00:35.952 : en:Chapter 02 00:02:06.000 : en:Chapter 03 00:16:34.994 : en:Chapter 04 00:22:41.735 : en:Chapter 05 00:23:41.002 : en:Chapter 06 ___________________ >>>As Always, If you enjoy my releases please help seed as much as possible. I only have 100Mbit seed ability so any help you can give is GREATLY appreciated by me as well as others who get to enjoy my torrents thanks to your help, . YOUR COMMENTS ARE ALWAYS WELCOME. Cheers>>

File list

  • Attack on Titan S03 Bluray 1080p TRUEHD 5.1 Hybrid-REMUX Dual Audio
    • Extra's
      • Attack On Titan at Anime Expo 2018 Interview with Bryce Papenbrook.mkv (1.5 GiB)
      • Attack On Titan at Anime Expo 2018 Interview with Yuki Kaji.mkv (2.5 GiB)
      • Chibi Shorts.mkv (1.8 GiB)
      • Commentary By Executive Director Tetsuro Araki And Director Masashi Koizuka.mkv (5.0 GiB)
      • Funi Q&A part II.mkv (1.5 GiB)
      • Funi Q&A.mkv (1.5 GiB)
      • Inside the Episode Attack on Titan.mkv (1.9 GiB)
      • Inside the Episode.mkv (1.5 GiB)
      • NCED #01.mkv (329.0 MiB)
      • NCED Hybrid #02.mkv (424.0 MiB)
      • NCOP #01.mkv (330.0 MiB)
      • NCOP Hybrid #02.mkv (416.7 MiB)
    • Attack on Titan S03E01 2018 Bluray 1080p TRUEHD 5.1 Hybrid-REMUX Dual Audio -ZR-.mkv (6.6 GiB)
    • Attack on Titan S03E02 2018 Bluray 1080p TRUEHD 5.1 Hybrid-REMUX Dual Audio -ZR-.mkv (6.6 GiB)
    • Attack on Titan S03E03 2018 Bluray 1080p TRUEHD 5.1 Hybrid-REMUX Dual Audio -ZR-.mkv (6.7 GiB)
    • Attack on Titan S03E04 2018 Bluray 1080p TRUEHD 5.1 Hybrid-REMUX Dual Audio -ZR-.mkv (6.6 GiB)
    • Attack on Titan S03E05 2018 Bluray 1080p TRUEHD 5.1 Hybrid-REMUX Dual Audio -ZR-.mkv (6.6 GiB)
    • Attack on Titan S03E06 2018 Bluray 1080p TRUEHD 5.1 Hybrid-REMUX Dual Audio -ZR-.mkv (6.6 GiB)
    • Attack on Titan S03E07 2018 Bluray 1080p TRUEHD 5.1 Hybrid-REMUX Dual Audio -ZR-.mkv (6.7 GiB)
    • Attack on Titan S03E08 2018 Bluray 1080p TRUEHD 5.1 Hybrid-REMUX Dual Audio -ZR-.mkv (6.7 GiB)
    • Attack on Titan S03E09 2018 Bluray 1080p TRUEHD 5.1 Hybrid-REMUX Dual Audio -ZR-.mkv (6.7 GiB)
    • Attack on Titan S03E10 2018 Bluray 1080p TRUEHD 5.1 Hybrid-REMUX Dual Audio -ZR-.mkv (6.8 GiB)
    • Attack on Titan S03E11 2018 Bluray 1080p TRUEHD 5.1 Hybrid-REMUX Dual Audio -ZR-.mkv (6.5 GiB)
    • Attack on Titan S03E12 2018 Bluray 1080p TRUEHD 5.1 Hybrid-REMUX Dual Audio -ZR-.mkv (6.6 GiB)
    • Attack on Titan S03E13 2019 Bluray 1080p TRUEHD 5.1 Hybrid-REMUX Dual Audio -ZR-.mkv (6.9 GiB)
    • Attack on Titan S03E14 2019 Bluray 1080p TRUEHD 5.1 Hybrid-REMUX Dual Audio -ZR-.mkv (6.9 GiB)
    • Attack on Titan S03E15 2019 Bluray 1080p TRUEHD 5.1 Hybrid-REMUX Dual Audio -ZR-.mkv (6.8 GiB)
    • Attack on Titan S03E16 2019 Bluray 1080p TRUEHD 5.1 Hybrid-REMUX Dual Audio -ZR-.mkv (6.9 GiB)
    • Attack on Titan S03E17 2019 Bluray 1080p TRUEHD 5.1 Hybrid-REMUX Dual Audio -ZR-.mkv (6.9 GiB)
    • Attack on Titan S03E18 2019 Bluray 1080p TRUEHD 5.1 Hybrid-REMUX Dual Audio -ZR-.mkv (7.0 GiB)
    • Attack on Titan S03E19 2019 Bluray 1080p TRUEHD 5.1 Hybrid-REMUX Dual Audio -ZR-.mkv (6.8 GiB)
    • Attack on Titan S03E20 2019 Bluray 1080p TRUEHD 5.1 Hybrid-REMUX Dual Audio -ZR-.mkv (6.8 GiB)
    • Attack on Titan S03E21 2019 Bluray 1080p TRUEHD 5.1 Hybrid-REMUX Dual Audio -ZR-.mkv (6.8 GiB)
    • Attack on Titan S03E22 2019 Bluray 1080p TRUEHD 5.1 Hybrid-REMUX Dual Audio -ZR-.mkv (7.0 GiB)