Attack.on.Titan.S02.Bluray.REMUX.1080p.TRUHD.51.AC351.TRUHD20.AC320.PCM20.Eng+Jap.EngSubs

Category:
Date:
2023-09-28 22:18 UTC
Submitter:
Seeders:
28
File size:
86.7 GiB
Completed:
1477
Info hash:
613a7c6906c55b440130520a3e652a0bcb6eeff0
![Attack.on.Titan.S02](https://external-content.duckduckgo.com/iu/?u=https%3A%2F%2Ftse3.mm.bing.net%2Fth%3Fid%3DOIP.uFo9BhACQ-qRsbB7V5NDQgHaEK%26pid%3DApi&f=1&ipt=10fc64c4d18606be353010b9738dbcdeb4e88b5dda81397311caf57a635e8794&ipo=images "Attack.on.Titan.S02") **Attack.on.Titan.S02.Bluray.REMUX.1080p.TRUHD.51.AC351.TRUHD20.AC320.PCM20.Eng+Jap.EngSubs** https://www.imdb.com/title/tt2560140/episodes/?season=2 https://attackontitan.fandom.com/wiki/List_of_Attack_on_Titan_episodes **IM RELEASING THESE REMUXES BECAUSE ALL THE OTHER REMUX VERSIONS ON NYAA ARE SO HAPHAZARD AND BADLY SEEDED** Once Im done all S01-S04Part01 and S04Part02 REMUX will be up and seeded on my seedbox forever. This is the complete Season 2 including extras from the Blu-rays remuxed from Blu-ray by Zanros. Check the fandom link above for more info. You can find BluRay REMUXES S01 S03 and S04Part01 and 02 similarly named on NYAA. If You dont find them its because Im still working on this huge batch. Check back. I will soon have them all up. ___________________________________________ **Attack on Titan S02 (Shingeki no Kyojin)** For centuries, humanity has been hunted by giant, mysterious predators known as the Titans. Three mighty walls—Wall Maria, Rose, and Sheena—provided peace and protection for humanity for over a hundred years. That peace, however, was shattered when the Colossal Titan and Armored Titan appeared and destroyed the outermost wall, Wall Maria. Forced to retreat behind Wall Rose, humanity waited with bated breath for the Titans to reappear and destroy their safe haven once more. In Shingeki no Kyojin Season 2, Eren Yeager and others of the 104th Training Corps have just begun to become full members of the Survey Corps. As they ready themselves to face the Titans once again, their preparations are interrupted by the invasion of Wall Rose—but all is not as it seems as more mysteries are unraveled. As the Survey Corps races to save the wall, they uncover more about the invading Titans and the dark secrets of their own members. [Written by MAL Rewrite] Aired: Apr 1, 2017 to Jun 17, 2017 Genres: Action, Drama, Suspense Themes: Gore, Military, Survival Duration: 24 min Rating: R - 17+ (violence & profanity) __________________________________________ MediaInfo: General Unique ID : 147321288608450609345844827971280093954 (0x6ED50C5170978D988775FA0186DAC302) Complete name : Shingeki no Kyojin S2 - E01 [BD 1080p Hybrid REMUX].mkv Format : Matroska Format version : Version 4 File size : 7.21 GiB Duration : 24 min 11 s Overall bit rate mode : Variable Overall bit rate : 42.6 Mb/s Frame rate : 23.976 FPS Movie name : Beast Titan Encoded date : 2020-09-06 15:23:16 UTC Writing application : mkvmerge v48.0.0 ('Fortress Around Your Heart') 64-bit Writing library : libebml v1.4.0 + libmatroska v1.6.0 Cover : Yes Attachments : cover.jpg / Clearface SSi Bold.ttf / FeENrm28C.otf / KeplerStd-Regular.otf / Señor Domingo.ttf / Volkhov-Bold.ttf / Volkhov-BoldItalic.ttf / Volkhov-Regular.ttf / AGaramondPro-Regular.otf / AmazObitaemOstrovCrazy!.ttf Video ID : 1 Format : AVC Format/Info : Advanced Video Codec Format profile : High@L4.1 Format settings : CABAC / 4 Ref Frames Format settings, CABAC : Yes Format settings, Reference frames : 4 frames Codec ID : V_MPEG4/ISO/AVC Duration : 24 min 11 s Bit rate mode : Variable Bit rate : 36.4 Mb/s Maximum bit rate : 38.0 Mb/s Width : 1 920 pixels Height : 1 080 pixels Display aspect ratio : 16:9 Frame rate mode : Constant Frame rate : 23.976 (24000/1001) FPS Color space : YUV Chroma subsampling : 4:2:0 Bit depth : 8 bits Scan type : Progressive Bits/(Pixel*Frame) : 0.732 Stream size : 6.15 GiB (85%) Language : Japanese Default : Yes Forced : No Audio #1 ID : 2 Format : MLP FBA Format/Info : Meridian Lossless Packing FBA Commercial name : Dolby TrueHD Codec ID : A_TRUEHD Duration : 24 min 11 s Bit rate mode : Variable Bit rate : 2 156 kb/s Maximum bit rate : 3 816 kb/s Channel(s) : 6 channels Channel layout : L R C LFE Ls Rs Sampling rate : 48.0 kHz Frame rate : 1 200.000 FPS (40 SPF) Compression mode : Lossless Stream size : 373 MiB (5%) Title : English TrueHD 5.1 Language : English Default : Yes Forced : No Audio #2 ID : 3 Format : AC-3 Format/Info : Audio Coding 3 Commercial name : Dolby Digital Codec ID : A_AC3 Duration : 24 min 11 s Bit rate mode : Constant Bit rate : 448 kb/s Channel(s) : 6 channels Channel layout : L R C LFE Ls Rs Sampling rate : 48.0 kHz Frame rate : 31.250 FPS (1536 SPF) Compression mode : Lossy Delay relative to video : 24 ms Stream size : 77.5 MiB (1%) Title : English AC-3 5.1 Language : English Service kind : Complete Main Default : No Forced : No Audio #3 ID : 4 Format : MLP FBA Format/Info : Meridian Lossless Packing FBA Commercial name : Dolby TrueHD Codec ID : A_TRUEHD Duration : 24 min 11 s Bit rate mode : Variable Bit rate : 793 kb/s Maximum bit rate : 1 257 kb/s Channel(s) : 2 channels Channel layout : L R Sampling rate : 48.0 kHz Frame rate : 1 200.000 FPS (40 SPF) Compression mode : Lossless Stream size : 137 MiB (2%) Title : Japanese TrueHD 2.0 Language : Japanese Default : No Forced : No Audio #4 ID : 5 Format : AC-3 Format/Info : Audio Coding 3 Commercial name : Dolby Digital Codec ID : A_AC3 Duration : 24 min 11 s Bit rate mode : Constant Bit rate : 192 kb/s Channel(s) : 2 channels Channel layout : L R Sampling rate : 48.0 kHz Frame rate : 31.250 FPS (1536 SPF) Compression mode : Lossy Delay relative to video : 24 ms Stream size : 33.2 MiB (0%) Title : Japanese AC-3 2.0 Language : Japanese Service kind : Complete Main Default : No Forced : No Audio #5 ID : 6 Format : PCM Format settings : Little / Signed Codec ID : A_PCM/INT/LIT Duration : 24 min 11 s Bit rate mode : Constant Bit rate : 2 304 kb/s Channel(s) : 2 channels Sampling rate : 48.0 kHz Frame rate : 30.000 FPS (1600 SPF) Bit depth : 24 bits Stream size : 399 MiB (5%) Title : Japanese PCM 2.0 Language : Japanese Default : No Forced : No Text #1 ID : 7 Format : PGS Muxing mode : zlib Codec ID : S_HDMV/PGS Codec ID/Info : Picture based subtitle format used on BDs/HD-DVDs Duration : 23 min 56 s Bit rate : 26.6 kb/s Frame rate : 0.330 FPS Count of elements : 474 Stream size : 4.55 MiB (0%) Title : Full English Subtitles Language : English Default : No Forced : No Text #2 ID : 8 Format : ASS Codec ID : S_TEXT/ASS Codec ID/Info : Advanced Sub Station Alpha Duration : 21 min 21 s Bit rate : 98.9 kb/s Frame rate : 49.637 FPS Count of elements : 63623 Compression mode : Lossless Stream size : 15.1 MiB (0%) Title : Songs & Signs Subtitles [MK-SCY (LostYears modified)] Language : English Default : Yes Forced : No Text #3 ID : 9 Format : ASS Codec ID : S_TEXT/ASS Codec ID/Info : Advanced Sub Station Alpha Duration : 23 min 56 s Bit rate : 88.3 kb/s Frame rate : 44.452 FPS Count of elements : 63874 Compression mode : Lossless Stream size : 15.1 MiB (0%) Title : Full English Subtitles [MK-SCY (LostYears modified)] Language : English Default : No Forced : No Menu 00:00:00.000 : ja:Chapter 01 00:02:42.036 : ja:Chapter 02 00:04:12.001 : ja:Chapter 03 00:14:42.006 : ja:Chapter 04 00:22:09.995 : ja:Chapter 05 00:23:40.001 : ja:Chapter 06 ___________________ >>>As Always, If you enjoy my releases please help seed as much as possible. I only have 100Mbit seed ability so any help you can give is GREATLY appreciated by me as well as others who get to enjoy my torrents thanks to your help, . YOUR COMMENTS ARE ALWAYS WELCOME. Cheers>>

File list

  • Attack on Titan S02 Bluray 1080p TRUEHD 5.1 Hybrid-REMUX Dual Audio
    • Extra's
      • Shingeki no Kyojin S2 NCED [BD 1080p Hybrid REMUX].mkv (381.6 MiB)
      • Shingeki no Kyojin S2 NCOP [BD 1080p Hybrid REMUX].mkv (426.3 MiB)
    • Shingeki no Kyojin S2 - E01 [BD 1080p Hybrid REMUX].mkv (7.2 GiB)
    • Shingeki no Kyojin S2 - E02 [BD 1080p Hybrid REMUX].mkv (7.2 GiB)
    • Shingeki no Kyojin S2 - E03 [BD 1080p Hybrid REMUX].mkv (7.2 GiB)
    • Shingeki no Kyojin S2 - E04 [BD 1080p Hybrid REMUX].mkv (7.1 GiB)
    • Shingeki no Kyojin S2 - E05 [BD 1080p Hybrid REMUX].mkv (7.2 GiB)
    • Shingeki no Kyojin S2 - E06 [BD 1080p Hybrid REMUX].mkv (7.1 GiB)
    • Shingeki no Kyojin S2 - E07 [BD 1080p Hybrid REMUX].mkv (7.3 GiB)
    • Shingeki no Kyojin S2 - E08 [BD 1080p Hybrid REMUX].mkv (7.1 GiB)
    • Shingeki no Kyojin S2 - E09 [BD 1080p Hybrid REMUX].mkv (7.1 GiB)
    • Shingeki no Kyojin S2 - E10 [BD 1080p Hybrid REMUX].mkv (7.1 GiB)
    • Shingeki no Kyojin S2 - E11 [BD 1080p Hybrid REMUX].mkv (7.2 GiB)
    • Shingeki no Kyojin S2 - E12 [BD 1080p Hybrid REMUX].mkv (7.0 GiB)

Bullitbaby (uploader)

BANNED User
Never had a torrent this large get over 1000 Snatches. WOW! Thats like almost 100TB. hahaha. crazy all this data about monsters that eat people. whaat a CONCEPT. and they made million$$$$$s with this backwards amazing totally stupid completely entertaining disgusting gruesome spectacle of an anime. Just a small badge of NYAA honors I guess. I did the nerdy thing and added up all the snatches times the GB size and it came to 841.9PB seeded ....by someone not all me but .....mostly me. hahahaa.