Attack.on.Titan.S01.Bluray.REMUX.1080p.TRUHD.51.AC351.TRUHD20.AC320.PCM20.Eng+Jap.EngSubs

Category:
Date:
2023-09-28 11:55 UTC
Submitter:
Seeders:
26
File size:
180.1 GiB
Completed:
1067
Info hash:
dba9cdfbb662fdc2161071ba0db8ea05794b7212
![Attack.on.Titan.S01](https://external-content.duckduckgo.com/iu/?u=https%3A%2F%2Ftse1.mm.bing.net%2Fth%3Fid%3DOIP.FOISveFEwtHE7xykjjFWSQHaEK%26pid%3DApi&f=1&ipt=de185d2acc822a327a31ea65329e902a2e93eb2c1bb451dcd909f2fe3069c189&ipo=images "Attack.on.Titan.S01") **Attack.on.Titan.S01.Bluray.REMUX.1080p.TRUHD.51.AC351.TRUHD20.AC320.PCM20.Eng+Jap.EngSubs** https://www.imdb.com/title/tt2560140/episodes/?season=1 https://attackontitan.fandom.com/wiki/List_of_Attack_on_Titan_episodes **IM RELEASING THESE REMUXES BECAUSE ALL THE OTHER REMUX VERSIONS ON NYAA ARE SO HAPHAZARD AND BADLY SEEDED** Once Im done all S01-S04Part01 and S04Part02 REMUX will be up and seeded on my seedbox forever. This is the complete Season 1 including extras from the Blu-rays remuxed from Blu-ray by Zanros. Check the fandom link above for more info. You can find BluRay REMUXES S02 S03 and S04Part01 and 02 similarly named on NYAA. If You dont find them its because Im still working on this huge batch. Check back. I will soon have them all up. ___________________________________________ **Attack on Titan (Shingeki no Kyojin)** Several hundred years ago, humans were nearly exterminated by titans. Titans are typically several stories tall, seem to have no intelligence, devour human beings and, worst of all, seem to do it for the pleasure rather than as a food source. A small percentage of humanity survived by walling themselves in a city protected by extremely high walls, even taller than the biggest of titans. Flash forward to the present and the city has not seen a titan in over 100 years. Teenage boy Eren and his foster sister Mikasa witness something horrific as the city walls are destroyed by a colossal titan that appears out of thin air. As the smaller titans flood the city, the two kids watch in horror as their mother is eaten alive. Eren vows that he will murder every single titan and take revenge for all of mankind. Release date: Sunday 7th April 2013 Genre: Action, Drama, Fantasy, Mystery Duration: 24 min __________________________________________ MediaInfo: General Unique ID : 11826569138262549269614636467702219296 (0x8E5B6E093BCBF870138825DCA984220) Complete name : Shingeki no Kyojin - E01 [BD 1080p Hybrid REMUX].mkv Format : Matroska Format version : Version 4 File size : 7.71 GiB Duration : 25 min 40 s Overall bit rate mode : Variable Overall bit rate : 43.0 Mb/s Frame rate : 23.976 FPS Movie name : To You, 2000 Years in the Future: The Fall of Zhiganshina Encoded date : 2020-08-02 19:31:29 UTC Writing application : mkvmerge v48.0.0 ('Fortress Around Your Heart') 64-bit Writing library : libebml v1.4.0 + libmatroska v1.6.0 Cover : Yes Attachments : cover.jpg / CENTURY.TTF / LLCOOPER.TTF / msmincho.ttc / ObeliskMdITC TT.ttf / Openc.TTF / Volkhov-BoldItalic.ttf / Volkhov-Regular.ttf / AmazObitaemOstrovCrazy!.ttf / Cardo-Regular.ttf Video ID : 1 ID in the original source medium : 4113 (0x1011) Format : AVC Format/Info : Advanced Video Codec Format profile : High@L4.1 Format settings : CABAC / 4 Ref Frames Format settings, CABAC : Yes Format settings, Reference frames : 4 frames Codec ID : V_MPEG4/ISO/AVC Duration : 25 min 40 s Bit rate mode : Variable Bit rate : 37.0 Mb/s Maximum bit rate : 38.0 Mb/s Width : 1 920 pixels Height : 1 080 pixels Display aspect ratio : 16:9 Frame rate mode : Constant Frame rate : 23.976 (24000/1001) FPS Color space : YUV Chroma subsampling : 4:2:0 Bit depth : 8 bits Scan type : Progressive Bits/(Pixel*Frame) : 0.744 Stream size : 6.64 GiB (86%) Language : Japanese Default : Yes Forced : No Original source medium : Blu-ray Audio #1 ID : 2 ID in the original source medium : 4352 (0x1100) Format : MLP FBA Format/Info : Meridian Lossless Packing FBA Commercial name : Dolby TrueHD Codec ID : A_TRUEHD Duration : 25 min 40 s Bit rate mode : Variable Bit rate : 2 098 kb/s Maximum bit rate : 3 495 kb/s Channel(s) : 6 channels Channel layout : L R C LFE Ls Rs Sampling rate : 48.0 kHz Frame rate : 1 200.000 FPS (40 SPF) Compression mode : Lossless Stream size : 385 MiB (5%) Title : English TrueHD 5.1 Language : English Default : Yes Forced : No Original source medium : Blu-ray Audio #2 ID : 3 ID in the original source medium : 4352 (0x1100) Format : AC-3 Format/Info : Audio Coding 3 Commercial name : Dolby Digital Codec ID : A_AC3 Duration : 25 min 40 s Bit rate mode : Constant Bit rate : 448 kb/s Channel(s) : 6 channels Channel layout : L R C LFE Ls Rs Sampling rate : 48.0 kHz Frame rate : 31.250 FPS (1536 SPF) Compression mode : Lossy Delay relative to video : 24 ms Stream size : 82.3 MiB (1%) Title : English AC-3 5.1 Language : English Service kind : Complete Main Default : No Forced : No Original source medium : Blu-ray Audio #3 ID : 4 ID in the original source medium : 4353 (0x1101) Format : MLP FBA Format/Info : Meridian Lossless Packing FBA Commercial name : Dolby TrueHD Codec ID : A_TRUEHD Duration : 25 min 40 s Bit rate mode : Variable Bit rate : 751 kb/s Maximum bit rate : 1 275 kb/s Channel(s) : 2 channels Channel layout : L R Sampling rate : 48.0 kHz Frame rate : 1 200.000 FPS (40 SPF) Compression mode : Lossless Stream size : 138 MiB (2%) Title : Japanese TrueHD 2.0 Language : Japanese Default : No Forced : No Original source medium : Blu-ray Audio #4 ID : 5 ID in the original source medium : 4353 (0x1101) Format : AC-3 Format/Info : Audio Coding 3 Commercial name : Dolby Digital Codec ID : A_AC3 Duration : 25 min 40 s Bit rate mode : Constant Bit rate : 192 kb/s Channel(s) : 2 channels Channel layout : L R Sampling rate : 48.0 kHz Frame rate : 31.250 FPS (1536 SPF) Compression mode : Lossy Delay relative to video : 24 ms Stream size : 35.3 MiB (0%) Title : Japanese AC-3 2.0 Language : Japanese Service kind : Complete Main Default : No Forced : No Original source medium : Blu-ray Audio #5 ID : 6 ID in the original source medium : 4352 (0x1100) Format : PCM Format settings : Little / Signed Codec ID : A_PCM/INT/LIT Duration : 25 min 40 s Bit rate mode : Constant Bit rate : 2 304 kb/s Channel(s) : 2 channels Sampling rate : 48.0 kHz Frame rate : 30.000 FPS (1600 SPF) Bit depth : 24 bits Stream size : 423 MiB (5%) Title : Japanese PCM 2.0 Language : Japanese Default : No Forced : No Original source medium : Blu-ray Text #1 ID : 7 ID in the original source medium : 4609 (0x1201) Format : PGS Muxing mode : zlib Codec ID : S_HDMV/PGS Codec ID/Info : Picture based subtitle format used on BDs/HD-DVDs Duration : 23 min 2 s Bit rate : 3 730 b/s Frame rate : 0.032 FPS Count of elements : 44 Stream size : 630 KiB (0%) Title : Songs & Signs Subtitles Language : English Default : No Forced : No Original source medium : Blu-ray Text #2 ID : 8 ID in the original source medium : 4608 (0x1200) Format : PGS Muxing mode : zlib Codec ID : S_HDMV/PGS Codec ID/Info : Picture based subtitle format used on BDs/HD-DVDs Duration : 25 min 14 s Bit rate : 33.5 kb/s Frame rate : 0.399 FPS Count of elements : 604 Stream size : 6.05 MiB (0%) Title : Full English Subtitles Language : English Default : No Forced : No Original source medium : Blu-ray Text #3 ID : 9 Format : ASS Codec ID : S_TEXT/ASS Codec ID/Info : Advanced Sub Station Alpha Duration : 23 min 36 s Bit rate : 698 b/s Frame rate : 0.703 FPS Count of elements : 996 Compression mode : Lossless Stream size : 121 KiB (0%) Title : Songs & Signs Subtitles [Baal/SCY] Language : English Default : Yes Forced : No Text #4 ID : 10 Format : ASS Codec ID : S_TEXT/ASS Codec ID/Info : Advanced Sub Station Alpha Duration : 25 min 14 s Bit rate : 736 b/s Frame rate : 0.833 FPS Count of elements : 1262 Compression mode : Lossless Stream size : 136 KiB (0%) Title : Full English Subtitles [Baal/SCY] Language : English Default : No Forced : No Menu 00:00:00.000 : ja:Chapter 01 00:02:02.997 : ja:Chapter 02 00:03:35.006 : ja:Chapter 03 00:12:34.003 : ja:Chapter 04 00:23:54.975 : ja:Chapter 05 00:25:24.940 : ja:Chapter 06 ___________________ >>>As Always, If you enjoy my releases please help seed as much as possible. I only have 100Mbit seed ability so any help you can give is GREATLY appreciated by me as well as others who get to enjoy my torrents thanks to your help, . YOUR COMMENTS ARE ALWAYS WELCOME. Cheers>>

File list

  • Attack on Titan S01 Bluray 1080p TRUEHD 5.1 Hybrid-REMUX Dual Audio
    • Extra's
      • Shingeki no Kyojin NCED 01 [BD 1080p REMUX].mkv (432.5 MiB)
      • Shingeki no Kyojin NCED 02 [BD 1080p REMUX].mkv (433.1 MiB)
      • Shingeki no Kyojin NCOP 01 [BD 1080p REMUX].mkv (447.3 MiB)
      • Shingeki no Kyojin NCOP 02 [BD 1080p REMUX].mkv (431.3 MiB)
    • Shingeki no Kyojin - E01 [BD 1080p Hybrid REMUX].mkv (7.7 GiB)
    • Shingeki no Kyojin - E02 [BD 1080p Hybrid REMUX].mkv (7.3 GiB)
    • Shingeki no Kyojin - E03 [BD 1080p Hybrid REMUX].mkv (7.3 GiB)
    • Shingeki no Kyojin - E04 [BD 1080p Hybrid REMUX].mkv (7.3 GiB)
    • Shingeki no Kyojin - E05 [BD 1080p Hybrid REMUX].mkv (7.1 GiB)
    • Shingeki no Kyojin - E06 [BD 1080p Hybrid REMUX].mkv (7.0 GiB)
    • Shingeki no Kyojin - E07 [BD 1080p Hybrid REMUX].mkv (7.0 GiB)
    • Shingeki no Kyojin - E08 [BD 1080p Hybrid REMUX].mkv (7.1 GiB)
    • Shingeki no Kyojin - E09 [BD 1080p Hybrid REMUX].mkv (7.0 GiB)
    • Shingeki no Kyojin - E10 [BD 1080p Hybrid REMUX].mkv (7.0 GiB)
    • Shingeki no Kyojin - E11 [BD 1080p Hybrid REMUX].mkv (7.1 GiB)
    • Shingeki no Kyojin - E12 [BD 1080p Hybrid REMUX].mkv (7.1 GiB)
    • Shingeki no Kyojin - E13 [BD 1080p Hybrid REMUX].mkv (7.1 GiB)
    • Shingeki no Kyojin - E14 [BD 1080p Hybrid REMUX].mkv (7.3 GiB)
    • Shingeki no Kyojin - E15 [BD 1080p Hybrid REMUX].mkv (7.0 GiB)
    • Shingeki no Kyojin - E16 [BD 1080p Hybrid REMUX].mkv (7.0 GiB)
    • Shingeki no Kyojin - E17 [BD 1080p Hybrid REMUX].mkv (7.1 GiB)
    • Shingeki no Kyojin - E18 [BD 1080p Hybrid REMUX].mkv (7.1 GiB)
    • Shingeki no Kyojin - E19 [BD 1080p Hybrid REMUX].mkv (7.1 GiB)
    • Shingeki no Kyojin - E20 [BD 1080p Hybrid REMUX].mkv (7.1 GiB)
    • Shingeki no Kyojin - E21 [BD 1080p Hybrid REMUX].mkv (7.2 GiB)
    • Shingeki no Kyojin - E22 [BD 1080p Hybrid REMUX].mkv (7.1 GiB)
    • Shingeki no Kyojin - E23 [BD 1080p Hybrid REMUX].mkv (7.0 GiB)
    • Shingeki no Kyojin - E24 [BD 1080p Hybrid REMUX].mkv (7.1 GiB)
    • Shingeki no Kyojin - E25 [BD 1080p Hybrid REMUX].mkv (7.0 GiB)
The size makes me want to moan.
@bomb size ≠ quality. scy and kawaiika are better encodes

Bullitbaby (uploader)

BANNED User
@bomb @mcbaws21 .....these are REMUXES so OBVIOUSLY by NAME the encoding was done by the studio. not me. A REMUX IS A REMUX IS A REMUX. Its just another name for dumping a BLURAY into mkv files in raw untouched form. want different encodes than the bluray.....then look elsewhere. whining about a few GB when $400 by bya a 22TB hard disk. Invest in some storage its pathetically cheap. You either want the raw bluray digits or u dont its that simple.
Bruh. I love remuxes, lmao. I got 14TB rn lol.
@mcbaws21 based poorfag
@mcbaws21 please don't give advice when you don't understand the topic.
i know what a remux is, i have released plenty. was just telling @bomb not to conflate file size with image quality, and that i personally believed those other encodes to look better despite their smaller sizes