Attack on Titan S00 OAD OVA Bluray REMUX AVC AAC 2.0 Dual Audio

Category:
Date:
2023-09-28 08:29 UTC
Submitter:
Seeders:
12
File size:
41.0 GiB
Completed:
445
Info hash:
1daf614af2c9faf98e1e0e1a0b633fe01de9a96f
![Attack on Titan S00](https://external-content.duckduckgo.com/iu/?u=https%3A%2F%2Ftse3.explicit.bing.net%2Fth%3Fid%3DOIP.9z3vr7Rsnfe3UrnQlVY8-AHaEK%26pid%3DApi&f=1&ipt=5486882737991d75100d95b024b4454ec4c29fa36e226d54de2d6deee318c700&ipo=images "Attack on Titan S00") **ATTACK ON TITAN OVA (2013-2023)** https://attackontitan.fandom.com/wiki/List_of_Attack_on_Titan_episodes/OVA The original video animation (OVA) episodes are special episodes that were not aired during the original season but released alongside select volumes of the manga. These are all the 8 episodes remuxed from Blu-ray by Zanros. Check the fandom link above for more info. ___________________________________________ **Attack on Titan (Shingeki no Kyojin)** Several hundred years ago, humans were nearly exterminated by titans. Titans are typically several stories tall, seem to have no intelligence, devour human beings and, worst of all, seem to do it for the pleasure rather than as a food source. A small percentage of humanity survived by walling themselves in a city protected by extremely high walls, even taller than the biggest of titans. Flash forward to the present and the city has not seen a titan in over 100 years. Teenage boy Eren and his foster sister Mikasa witness something horrific as the city walls are destroyed by a colossal titan that appears out of thin air. As the smaller titans flood the city, the two kids watch in horror as their mother is eaten alive. Eren vows that he will murder every single titan and take revenge for all of mankind. Release date: Sunday 7th April 2013 Genre: Action, Drama, Fantasy, Mystery Duration: 24 min __________________________________________ MediaInfo: General Unique ID : 51408448356434578514747661636866199797 (0x26ACE831B4143E53344D496073A0D0F5) Complete name : J:\AADownloads\REMUX2\Shingeki no Kyojin S00E07 (Ilse`s Notebook Memoirs of a Recon Corps Member) 2013 1080p Bluray REMUX AVC AAC 2.0 Dual Audio -ZR-.mkv Format : Matroska Format version : Version 4 File size : 4.84 GiB Duration : 23 min 20 s Overall bit rate mode : Variable Overall bit rate : 29.7 Mb/s Frame rate : 23.976 FPS Encoded date : 2022-06-19 21:39:47 UTC Writing application : mkvmerge v29.0.0 ('Like It Or Not') 32-bit Writing library : libebml v1.3.6 + libmatroska v1.4.9 Attachments : arialbd.ttf / arialbi.ttf / Arial_0.ttf / ariblk_0.TTF / calibri.ttf / comicbd.ttf / comic_0.ttf / georgiab.ttf / georgiaz.ttf / georgia_0.ttf / impact_0.ttf / Tahoma_0.ttf / times_0.ttf / trebuc_0.ttf / verdana_0.ttf / AdobeArabic-Bold.otf / AdobeArabic-BoldItalic.otf / AdobeArabic-Italic.otf / AdobeArabic-Regular.otf / Cardo-Regular.ttf / KozMinPro-Medium.otf / LLCOOPER.TTF / MS Mincho.ttc / ObeliskMdITC TT.ttf / Openc.TTF / Volkhov-Regular.ttf / AmazObitaemOstrovCrazy!.ttf Video ID : 1 Format : AVC Format/Info : Advanced Video Codec Format profile : High@L4.1 Format settings : CABAC / 4 Ref Frames Format settings, CABAC : Yes Format settings, Reference frames : 4 frames Codec ID : V_MPEG4/ISO/AVC Duration : 23 min 19 s Bit rate mode : Variable Bit rate : 27.0 Mb/s Maximum bit rate : 38.0 Mb/s Width : 1 920 pixels Height : 1 080 pixels Display aspect ratio : 16:9 Frame rate mode : Constant Frame rate : 23.976 (24000/1001) FPS Color space : YUV Chroma subsampling : 4:2:0 Bit depth : 8 bits Scan type : Progressive Bits/(Pixel*Frame) : 0.543 Stream size : 4.40 GiB (91%) Language : English Default : No Forced : No Audio #1 ID : 2 Format : AAC LC Format/Info : Advanced Audio Codec Low Complexity Codec ID : A_AAC-2 Duration : 23 min 19 s Bit rate : 256 kb/s Channel(s) : 2 channels Channel layout : L R Sampling rate : 48.0 kHz Frame rate : 46.875 FPS (1024 SPF) Compression mode : Lossy Delay relative to video : 2 ms Stream size : 42.7 MiB (1%) Title : English Dub Language : English Default : Yes Forced : No Audio #2 ID : 3 Format : PCM Format settings : Little / Signed Codec ID : A_PCM/INT/LIT Duration : 23 min 19 s Bit rate mode : Constant Bit rate : 2 304 kb/s Channel(s) : 2 channels Sampling rate : 48.0 kHz Frame rate : 30.000 FPS (1600 SPF) Bit depth : 24 bits Delay relative to video : 10 ms Stream size : 385 MiB (8%) Title : Stereo Language : Japanese Default : No Forced : No Text #1 ID : 4 Format : ASS Codec ID : S_TEXT/ASS Codec ID/Info : Advanced Sub Station Alpha Duration : 22 min 21 s Bit rate : 696 b/s Frame rate : 0.731 FPS Count of elements : 981 Compression mode : Lossless Stream size : 114 KiB (0%) Title : Signs & Songs Language : English Default : Yes Forced : No Text #2 ID : 5 Format : ASS Codec ID : S_TEXT/ASS Codec ID/Info : Advanced Sub Station Alpha Duration : 23 min 13 s Bit rate : 761 b/s Frame rate : 0.910 FPS Count of elements : 1268 Compression mode : Lossless Stream size : 129 KiB (0%) Title : Full Subtitles Language : English Default : No Forced : No Text #3 ID : 6 Format : ASS Codec ID : S_TEXT/ASS Codec ID/Info : Advanced Sub Station Alpha Duration : 21 min 42 s Bit rate : 105 b/s Frame rate : 0.181 FPS Count of elements : 236 Compression mode : Lossless Stream size : 16.8 KiB (0%) Title : Portuguese(Brazil) Language : Portuguese Default : No Forced : No Text #4 ID : 7 Format : ASS Codec ID : S_TEXT/ASS Codec ID/Info : Advanced Sub Station Alpha Duration : 21 min 42 s Bit rate : 108 b/s Frame rate : 0.194 FPS Count of elements : 253 Compression mode : Lossless Stream size : 17.2 KiB (0%) Title : Spanish(Latin_America) Language : Spanish Default : No Forced : No Text #5 ID : 8 Format : ASS Codec ID : S_TEXT/ASS Codec ID/Info : Advanced Sub Station Alpha Duration : 21 min 42 s Bit rate : 108 b/s Frame rate : 0.194 FPS Count of elements : 253 Compression mode : Lossless Stream size : 17.3 KiB (0%) Title : Spanish Language : Spanish Default : No Forced : No Text #6 ID : 9 Format : ASS Codec ID : S_TEXT/ASS Codec ID/Info : Advanced Sub Station Alpha Duration : 21 min 43 s Bit rate : 136 b/s Frame rate : 0.222 FPS Count of elements : 289 Compression mode : Lossless Stream size : 21.7 KiB (0%) Title : Arabic Language : Arabic Default : No Forced : No Text #7 ID : 10 Format : ASS Codec ID : S_TEXT/ASS Codec ID/Info : Advanced Sub Station Alpha Duration : 23 min 17 s Bit rate : 107 b/s Frame rate : 0.197 FPS Count of elements : 276 Compression mode : Lossless Stream size : 18.3 KiB (0%) Title : French Language : French Default : No Forced : No Text #8 ID : 11 Format : ASS Codec ID : S_TEXT/ASS Codec ID/Info : Advanced Sub Station Alpha Duration : 23 min 19 s Bit rate : 109 b/s Frame rate : 0.189 FPS Count of elements : 264 Compression mode : Lossless Stream size : 18.8 KiB (0%) Title : German Language : German Default : No Forced : No Text #9 ID : 12 Format : ASS Codec ID : S_TEXT/ASS Codec ID/Info : Advanced Sub Station Alpha Duration : 21 min 42 s Bit rate : 131 b/s Frame rate : 0.257 FPS Count of elements : 335 Compression mode : Lossless Stream size : 20.9 KiB (0%) Title : Italian Language : Italian Default : No Forced : No Text #10 ID : 13 Format : ASS Codec ID : S_TEXT/ASS Codec ID/Info : Advanced Sub Station Alpha Duration : 21 min 42 s Bit rate : 180 b/s Frame rate : 0.282 FPS Count of elements : 367 Compression mode : Lossless Stream size : 28.6 KiB (0%) Title : Russian Language : Russian Default : No Forced : No Menu 00:00:00.000 : en:Intro 00:02:04.832 : en:Opening 00:03:37.008 : en:Part A 00:12:20.990 : en:Part B 00:21:49.058 : en:Ending __________________________________________ >>>As Always, If you enjoy my releases please help seed as much as possible. I only have 100Mbit seed ability so any help you can give is GREATLY appreciated by me as well as others who get to enjoy my torrents thanks to your help, . YOUR COMMENTS ARE ALWAYS WELCOME. Cheers>>

File list

  • Attack on Titan S00 OAD ANT Bluray REMUX AVC AAC 2.0 Dual Audio -ZR
    • Shingeki no Kyojin S00E07 (Ilse`s Notebook Memoirs of a Recon Corps Member) 2013 1080p Bluray REMUX AVC AAC 2.0 Dual Audio -ZR-.mkv (4.8 GiB)
    • Shingeki no Kyojin S00E12 (The Sudden Visitor The Torturous Curse of Youth) 2014 1080p Bluray REMUX AVC AAC 2.0 Dual Audio -ZR-.mkv (5.3 GiB)
    • Shingeki no Kyojin S00E13 (Distress) 2014 1080p Bluray REMUX AVC AAC 2.0 Dual Audio -ZR-.mkv (5.0 GiB)
    • Shingeki no Kyojin S00E15 (A Choice with No Regrets (Part 1)) 2014 1080p Bluray REMUX AVC AAC 2.0 Dual Audio -ZR-.mkv (5.0 GiB)
    • Shingeki no Kyojin S00E17 (A Choice with No Regrets (Part 2)) 2015 1080p Bluray REMUX AVC AAC 2.0 Dual Audio -ZR-.mkv (6.2 GiB)
    • Shingeki no Kyojin S00E20 (Wall Sina, Goodbye (Part 1)) 2017 1080p Bluray REMUX AVC AAC 2.0 Dual Audio -ZR-.mkv (4.9 GiB)
    • Shingeki no Kyojin S00E22 (Wall Sina, Goodbye (Part 2)) 2018 1080p Bluray REMUX AVC AAC 2.0 Dual Audio -ZR-.mkv (4.9 GiB)
    • Shingeki no Kyojin S00E23 (Lost in the Cruel World) 2018 1080p Bluray REMUX AVC AAC 2.0 Dual Audio -ZR-.mkv (4.9 GiB)
Lost in the Cruel World is actually S00E???
@TheHWNJ The episode numbers in this release follow the tvdb standards, in order to be easily scanned by services like plex. the ??? is just a stylistic thing for the episode

Bullitbaby (uploader)

BANNED User
@mcbaws21 well said my friend...well said