[Zexto] Kimi ni wa Todokanai (I Can't Reach You) - EP01 [Netflix][WEB-DL][1080p]

Category:
Date:
2023-09-18 16:29 UTC
Submitter:
Seeders:
0
Information:
Leechers:
1
File size:
745.4 MiB
Completed:
240
Info hash:
79368752db7762a075c6d868c619646931a32df4
## Kimi ni wa Todokanai (I Can't Reach You) - EP01 *** Hi, Zexto again Follow me on [twitter](https://twitter.com/Zextokar_28) to keep up to date. Enjoy. *** #### Synopsis "No matter how much time we spend together, I’ll never become special to you." Childhood best friends. Two halves of a whole. The cool, smart one who’s good at almost everything, and his average, dorky friend who struggles to do anything right­—Yamato and Kakeru. Always by the other’s side, but not together in the way they truly want to be. No matter how hard they try, their hearts cannot reach each other… *** |![Image01](https://i.imgur.com/FUCoDxX.png)|![Imagen02](https://i.imgur.com/jdZxum1.jpg)| |-----------------------|-------------------------------------| *** ``` General Unique ID : 114711685275824570971406497196232991273 (0x564CAABE2D86B1AA9A34B9082034E229) Complete name : Kimi.ni.wa.Todokanai.(I.Cant.Reach.You).EP01.1080p.Netflix.WEB-DL.AAC.x264-Zexto.mkv Format : Matroska Format version : Version 4 File size : 745 MiB Duration : 20 min 20 s Overall bit rate mode : Variable Overall bit rate : 5 125 kb/s Frame rate : 29.970 FPS Movie name : Episodio 1 Writing application : Lavf58.32.104 Writing library : Lavf58.32.104 ErrorDetectionType : Per level 1 DATE : 2023 EPISODE_ID : 1 SEASON_NUMBER : 1 SHOW : I Cannot Reach You Video ID : 1 Format : AVC Format/Info : Advanced Video Codec Format profile : Main@L4 Format settings : CABAC / 3 Ref Frames Format settings, CABAC : Yes Format settings, Reference : 3 frames Codec ID : V_MPEG4/ISO/AVC Duration : 20 min 20 s Bit rate mode : Variable Bit rate : 5 000 kb/s Maximum bit rate : 7 500 kb/s Width : 1 920 pixels Height : 1 080 pixels Display aspect ratio : 16:9 Frame rate mode : Constant Frame rate : 29.970 (30000/1001) FPS Color space : YUV Chroma subsampling : 4:2:0 Bit depth : 8 bits Scan type : Progressive Bits/(Pixel*Frame) : 0.080 Stream size : 712 MiB (96%) Writing library : x264 core 148 r2727 7d026e8 Encoding settings : cabac=1 / ref=3 / deblock=1:0:0 / analyse=0x1:0x111 / me=umh / subme=10 / psy=1 / psy_rd=1.00:0.00 / mixed_ref=1 / me_range=24 / chroma_me=1 / trellis=2 / 8x8dct=0 / cqm=0 / deadzone=21,11 / fast_pskip=1 / chroma_qp_offset=-2 / threads=6 / lookahead_threads=1 / sliced_threads=0 / nr=0 / decimate=1 / interlaced=0 / bluray_compat=0 / stitchable=1 / constrained_intra=0 / bframes=2 / b_pyramid=0 / b_adapt=2 / b_bias=0 / direct=3 / weightb=1 / open_gop=0 / weightp=2 / keyint=300 / keyint_min=151 / scenecut=0 / intra_refresh=0 / rc_lookahead=60 / rc=2pass / mbtree=1 / bitrate=5000 / ratetol=1.0 / qcomp=0.50 / qpmin=6 / qpmax=51 / qpstep=4 / cplxblur=20.0 / qblur=0.5 / vbv_maxrate=7500 / vbv_bufsize=10000 / nal_hrd=vbr / filler=0 / ip_ratio=1.40 / aq=1:1.00 Default : Yes Forced : No VENDOR_ID : [0][0][0][0] Audio ID : 2 Format : E-AC-3 Format/Info : Enhanced AC-3 Commercial name : Dolby Digital Plus Codec ID : A_EAC3 Duration : 20 min 20 s Bit rate mode : Constant Bit rate : 128 kb/s Channel(s) : 2 channels Channel layout : L R Sampling rate : 48.0 kHz Frame rate : 31.250 FPS (1536 SPF) Bit depth : 32 bits Compression mode : Lossy Stream size : 18.6 MiB (2%) Title : japonés [Original] Language : Japanese Service kind : Complete Main Default : Yes Forced : No VENDOR_ID : [0][0][0][0] ```

File list

  • Kimi.ni.wa.Todokanai.(I.Cant.Reach.You).EP01.1080p.Netflix.WEB-DL.AAC.x264-Zexto.mkv (745.4 MiB)