[MagicStar] Yuyu Wonderland EP10 [WEBDL] [1080p] [JPN_SUB]

Category:
Date:
2023-09-17 11:29 UTC
Submitter:
Seeders:
0
File size:
422.3 MiB
Completed:
650
Info hash:
512f99d5ac341c57fece235ff49fba246962b905
HD 1080p from TVer. Japanese subtitles added. ![alt text](https://i.ibb.co/1LXBSML/b100754-w1.jpg) ![alt text](https://i.ibb.co/v17fFSY/Magic-Star-Yuyu-Wonderland-EP10-WEBDL-1080p-mkv.jpg) ``` General Unique ID : 329485749902478123839232426168468406887 (0xF7E0A5AECED1887071FA796545AC8267) Complete name : [MagicStar] Yuyu Wonderland EP10 [WEBDL] [1080p].mkv Format : Matroska Format version : Version 4 File size : 422 MiB Duration : 23 min 4 s Overall bit rate : 2 559 kb/s Frame rate : 29.970 FPS Encoded date : 2023-09-17 11:16:50 UTC Writing application : mkvmerge v50.0.0 ('Awakenings') 64-bit Writing library : libebml v1.4.0 + libmatroska v1.6.2 Cover : Yes Attachments : cover.jpg Video ID : 1 Format : AVC Format/Info : Advanced Video Codec Format profile : High@L4 Format settings : CABAC / 4 Ref Frames Format settings, CABAC : Yes Format settings, Reference fra : 4 frames Codec ID : V_MPEG4/ISO/AVC Duration : 23 min 3 s Bit rate : 2 359 kb/s Width : 1 920 pixels Height : 1 080 pixels Display aspect ratio : 16:9 Frame rate mode : Constant Frame rate : 29.970 (29970/1000) FPS Original frame rate : 29.970 (30000/1001) FPS Color space : YUV Chroma subsampling : 4:2:0 Bit depth : 8 bits Scan type : Progressive Bits/(Pixel*Frame) : 0.038 Stream size : 389 MiB (92%) Default : Yes Forced : No Color range : Limited Color primaries : BT.709 Transfer characteristics : BT.709 Matrix coefficients : BT.709 Audio ID : 2 Format : AAC LC Format/Info : Advanced Audio Codec Low Complexity Codec ID : A_AAC-2 Duration : 23 min 4 s Bit rate : 192 kb/s Channel(s) : 2 channels Channel layout : L R Sampling rate : 48.0 kHz Frame rate : 46.875 FPS (1024 SPF) Compression mode : Lossy Stream size : 31.6 MiB (7%) Title : 日本語 [オリジナル] Language : Japanese Default : Yes Forced : No ```

File list