[MagicStar] Kono Subarashiki Sekai EP09 END [WEBDL] [1080p] [AMZN] [JPN_SUB]

Category:
Date:
2023-09-17 00:07 UTC
Submitter:
Seeders:
4
Information:
Leechers:
0
File size:
2.1 GiB
Completed:
424
Info hash:
0d6b88538ec99ee5f6056abd329dbcf770456a86
HD 1080p from Prime Video. Use CBR bitrate mode. Japanese subtitles added. Audio description added. ************** We are planning to upload all Prime Video Japan Dramas and Movies, we need your Support! ************** Support Us Ali (Zhifubao / QR code): https://i.ibb.co/FWV2ggm/1660626347125.png PayPalMe: https://www.paypal.com/paypalme/sakuragikenji ETH (ERC20): 0xea3286E176099E8C9aBaf25A0edf231374C04E89 USDT (BTC / OMNI): 1Lemw6fu5vG3NdvWGxDxsPX7T7yUb3rNzu ************** ![alt text](https://i.ibb.co/YyS2KCT/a1bc2eac0dcb3ab0f53e9dbdcdcb5d6c4e754042a3d0624307757d6611858f95.jpg) ![alt text](https://i.ibb.co/L0kGzYX/Kono-Subarashiki-Sekai-EP09-1080p-AMZN-WEB-DL-DDP2-0-H-264-Magic-Star-mkv.jpg) ``` General Unique ID : 187335346386489258566639652807570641642 (0x8CEF79AEE2A9CDF17AA94294342C52EA) Complete name : Kono.Subarashiki.Sekai.EP09.1080p.AMZN.WEB-DL.DDP2.0.H.264-MagicStar.mkv Format : Matroska Format version : Version 4 File size : 2.07 GiB Duration : 45 min 52 s Overall bit rate mode : Constant Overall bit rate : 6 453 kb/s Frame rate : 29.970 FPS Encoded date : 2023-09-16 02:56:43 UTC Writing application : mkvmerge v50.0.0 ('Awakenings') 64-bit Writing library : libebml v1.4.0 + libmatroska v1.6.2 Cover : Yes Attachments : cover.png Video ID : 1 Format : AVC Format/Info : Advanced Video Codec Format profile : High@L4 Format settings : CABAC / 4 Ref Frames Format settings, CABAC : Yes Format settings, Reference fra : 4 frames Codec ID : V_MPEG4/ISO/AVC Duration : 45 min 52 s Bit rate mode : Constant Bit rate : 6 001 kb/s Nominal bit rate : 10 000 kb/s Width : 1 920 pixels Height : 1 080 pixels Display aspect ratio : 16:9 Frame rate mode : Constant Frame rate : 29.970 (29970/1000) FPS Original frame rate : 29.970 (30000/1001) FPS Color space : YUV Chroma subsampling : 4:2:0 Bit depth : 8 bits Scan type : Progressive Bits/(Pixel*Frame) : 0.097 Stream size : 1.92 GiB (93%) Default : Yes Forced : No Color range : Limited Color primaries : BT.709 Transfer characteristics : BT.709 Matrix coefficients : BT.709 Audio #1 ID : 2 Format : E-AC-3 Format/Info : Enhanced AC-3 Commercial name : Dolby Digital Plus Codec ID : A_EAC3 Duration : 45 min 52 s Bit rate mode : Constant Bit rate : 224 kb/s Channel(s) : 2 channels Channel layout : L R Sampling rate : 48.0 kHz Frame rate : 31.250 FPS (1536 SPF) Compression mode : Lossy Stream size : 73.5 MiB (3%) Title : 日本語 [オリジナル] Language : Japanese Service kind : Complete Main Default : Yes Forced : No Audio #2 ID : 3 Format : E-AC-3 Format/Info : Enhanced AC-3 Commercial name : Dolby Digital Plus Codec ID : A_EAC3 Duration : 45 min 52 s Bit rate mode : Constant Bit rate : 224 kb/s Channel(s) : 2 channels Channel layout : L R Sampling rate : 48.0 kHz Frame rate : 31.250 FPS (1536 SPF) Compression mode : Lossy Stream size : 73.5 MiB (3%) Title : 日本語 [解説放送音声] Language : Japanese Service kind : Complete Main Default : No Forced : No ```

File list