[MagicStar] Kekkon Yoteibi EP06 [WEBDL] [1080p] [JPN_SUB]

Category:
Date:
2023-09-17 00:06 UTC
Submitter:
Seeders:
1
Information:
Leechers:
0
File size:
496.8 MiB
Completed:
521
Info hash:
1d6c60550b7cf6bb0b4788d4b068ef8dce473e5f
HD 1080p from MBS official website. Japanese subtitles added. ![alt text](https://i.ibb.co/d4xYtnH/kekkon-yoteibi-webp.jpg) ![alt text](https://i.ibb.co/chDhc7d/Magic-Star-Kekkon-Yoteibi-EP06-WEBDL-1080p-mkv.jpg) ``` General Unique ID : 98498518616061278801480976173057595734 (0x4A1A1FE8EF2F5E4CA575EF05932A5956) Complete name : [MagicStar] Kekkon Yoteibi EP06 [WEBDL] [1080p].mkv Format : Matroska Format version : Version 4 File size : 497 MiB Duration : 24 min 6 s Overall bit rate : 2 882 kb/s Frame rate : 29.970 FPS Encoded date : 2023-09-16 03:14:30 UTC Writing application : mkvmerge v50.0.0 ('Awakenings') 64-bit Writing library : libebml v1.4.0 + libmatroska v1.6.2 Video ID : 1 Format : AVC Format/Info : Advanced Video Codec Format profile : High@L4 Format settings : CABAC / 4 Ref Frames Format settings, CABAC : Yes Format settings, Reference fra : 4 frames Codec ID : V_MPEG4/ISO/AVC Duration : 24 min 5 s Bit rate : 2 688 kb/s Width : 1 920 pixels Height : 1 080 pixels Display aspect ratio : 16:9 Frame rate mode : Constant Frame rate : 29.970 (29970/1000) FPS Original frame rate : 29.970 (30000/1001) FPS Color space : YUV Chroma subsampling : 4:2:0 Bit depth : 8 bits Scan type : Progressive Bits/(Pixel*Frame) : 0.043 Stream size : 463 MiB (93%) Default : Yes Forced : No Audio ID : 2 Format : AAC LC Format/Info : Advanced Audio Codec Low Complexity Codec ID : A_AAC-2 Duration : 24 min 6 s Bit rate : 192 kb/s Channel(s) : 2 channels Channel layout : L R Sampling rate : 48.0 kHz Frame rate : 46.875 FPS (1024 SPF) Compression mode : Lossy Stream size : 33.0 MiB (7%) Title : 日本語 [オリジナル] Language : Japanese Default : Yes Forced : No ```

File list