[neoDESU] The Legendary Hero Is Dead! [Season 1] [BD 1080p x265 HEVC OPUS AAC] [Dual Audio] Yuusha ga Shinda!

Category:
Date:
2023-09-14 16:47 UTC
Submitter:
Seeders:
29
Information:
Leechers:
1
File size:
3.5 GiB
Completed:
2116
Info hash:
b4fe02238e6b479726ae81a89108d5d76fe432d4
![](https://i.lensdump.com/i/6BKULK.png) *Come hang out in **[Discord](https://discord.gg/47Q7FdB54e)*** #### **[The Legendary Hero Is Dead! [Season 1]](https://myanimelist.net/anime/51706/Yuusha_ga_Shinda)** ▶️ **[Trailer](https://www.youtube.com/watch?v=6VNZtBFNuCU)** --- **Notes:** . Resampled script . Restyled script and changed fonts . Created styled OP & ED . Styled reccuring signs . Edited sign/dialogue overlaps . Created chapters --- **Synopsis** The Gates of Hell reopen, throwing the world into chaos and setting demons free to terrorize the land once again. These troubles seem irrelevant to quirky villager Touka Scott—until a demon attacks Yuna Eunice, his childhood friend. Luckily, the legendary hero Sion Blandan arrives in the nick of time to strike down the vile creature. Unfortunately, Sion soon dies after accidentally falling into a trap Touka set to defend his radish farm. Anri Haysworth, Sion's necromancer companion, resurrects the hero by transferring Touka's soul into Sion's corpse. Now possessing the body of the legendary hero, Touka is tasked with resealing the Gates of Hell and defeating the demons that threaten peace. Together with Yuna and Anri, Touka copes with both his new reality and Sion's heroic legacy as he embarks to save the world. ![](https://a.l3n.co/i/9tQRdM.png) --- **Language Options** I included two simple scripts that you can apply to these files to do the following (Windows only): 1. Make [Single Audio] Japanese: Throws out *English audio* and *Signs&Songs subtitles* tracks 2. Make [Single Audio] English: Throws out *Japanese audio* and *Dialogue subtitles* tracks To apply these put all the video files into the *Language Options* folder and run the .bat file. *Don't combine them and only use them once together with the base files.* --- **Source** 🗃️ Video and JPN Audio (JPN BDMV): **[[YE]](https://nyaa.si/view/1708365)** 🗃️ ENG Audio (WEB): **[[Yameii]](https://nyaa.si/view/1662962)** 🗃️ Subtitles: **[[SubsPlease]](https://nyaa.si/view/1657415)** 💬 *Subtitles Info: [SubsPlease] Base [Me] Edits, see notes* *Thank you all for making this possible <3* --- **Media Info** 🆔 **[Full Mediainfo incl. Encoder Settings](https://pastebin.com/Bn5ZXe9c)** ``` General Unique ID : 106383632895313973064951741532344892160 (0x5008BE0F24DA3CC0C5F7B83781873B00) Complete name : The Legendary Hero Is Dead! - S01E01.mkv Format : Matroska Format version : Version 4 File size : 303 MiB Duration : 23 min 41 s Overall bit rate : 1 791 kb/s Encoded date : UTC 2023-09-14 14:30:15 Writing application : mkvmerge v72.0.0 ('Minuano (Six-eight)') 64-bit Writing library : libebml v1.4.4 + libmatroska v1.7.1 Attachments : MONSTERS.ttf / Pixeled.ttf / CRONOSPRO-BOLD.OTF / CRONOSPRO-BOLDIT.OTF / MADE Tommy Soft Regular PERSONAL USE.otf / Togalite-Black.otf / Roboto-Medium.ttf / Roboto-MediumItalic.ttf / arial.ttf / arialbd.ttf / comic.ttf / comicbd.ttf / times.ttf / timesbd.ttf / trebuc.ttf / trebucbd.ttf / verdana.ttf / verdanab.ttf / CONSOLA.TTF / CONSOLAB.TTF Video ID : 1 Format : HEVC Format/Info : High Efficiency Video Coding Format profile : Main 10@L4@High Codec ID : V_MPEGH/ISO/HEVC Duration : 23 min 41 s Bit rate : 1 470 kb/s Width : 1 920 pixels Height : 1 080 pixels Display aspect ratio : 16:9 Frame rate mode : Constant Frame rate : 23.976 (24000/1001) FPS Color space : YUV Chroma subsampling : 4:2:0 Bit depth : 10 bits Bits/(Pixel*Frame) : 0.030 Stream size : 249 MiB (82%) Writing library : x265 3.5+37+12-4e46995bc:[Windows][MSVC 1931][64 bit] 10bit Encoding settings : <Check Link Above> Default : Yes Forced : No Audio #1 ID : 2 Format : AAC LC Format/Info : Advanced Audio Codec Low Complexity Codec ID : A_AAC-2 Duration : 23 min 40 s Bit rate : 128 kb/s Channel(s) : 2 channels Channel layout : L R Sampling rate : 44.1 kHz Frame rate : 43.066 FPS (1024 SPF) Compression mode : Lossy Stream size : 21.7 MiB (7%) Title : English Language : English Default : Yes Forced : No Audio #2 ID : 3 Format : Opus Codec ID : A_OPUS Duration : 23 min 41 s Bit rate : 127 kb/s Channel(s) : 2 channels Channel layout : L R Sampling rate : 48.0 kHz Frame rate : 50.000 FPS (960 SPF) Bit depth : 32 bits Compression mode : Lossy Stream size : 21.5 MiB (7%) Title : Japanese Language : Japanese Default : No Forced : No Text #1 ID : 4 Format : ASS Codec ID : S_TEXT/ASS Codec ID/Info : Advanced Sub Station Alpha Duration : 23 min 13 s Bit rate : 1 772 b/s Frame rate : 1.728 FPS Count of elements : 2408 Compression mode : Lossless Stream size : 302 KiB (0%) Title : Signs & Songs Language : English Default : No Forced : Yes Text #2 ID : 5 Format : ASS Codec ID : S_TEXT/ASS Codec ID/Info : Advanced Sub Station Alpha Duration : 23 min 33 s Bit rate : 1 918 b/s Frame rate : 2.028 FPS Count of elements : 2867 Compression mode : Lossless Stream size : 331 KiB (0%) Title : Dialogue Language : English Default : Yes Forced : No Menu 00:00:00.000 : :Intro 00:00:21.000 : :OP 00:01:51.010 : :Episode 00:22:10.060 : :ED ```

File list

  • [neoDESU] The Legendary Hero Is Dead! [Season 1] [BD 1080p x265 HEVC OPUS AAC] [Dual Audio]
    • Language Options
      • 1. Make [Single Audio] English.bat (254 Bytes)
      • 2. Make [Single Audio] Japanese.bat (254 Bytes)
      • mkvmerge.exe (9.6 MiB)
      • readme.txt (511 Bytes)
    • The Legendary Hero Is Dead! - S01E01.mkv (303.4 MiB)
    • The Legendary Hero Is Dead! - S01E02.mkv (328.0 MiB)
    • The Legendary Hero Is Dead! - S01E03.mkv (301.1 MiB)
    • The Legendary Hero Is Dead! - S01E04.mkv (275.3 MiB)
    • The Legendary Hero Is Dead! - S01E05.mkv (278.0 MiB)
    • The Legendary Hero Is Dead! - S01E06.mkv (283.4 MiB)
    • The Legendary Hero Is Dead! - S01E07.mkv (276.2 MiB)
    • The Legendary Hero Is Dead! - S01E08.mkv (308.6 MiB)
    • The Legendary Hero Is Dead! - S01E09.mkv (304.4 MiB)
    • The Legendary Hero Is Dead! - S01E10.mkv (276.8 MiB)
    • The Legendary Hero Is Dead! - S01E11.mkv (300.4 MiB)
    • The Legendary Hero Is Dead! - S01E12.mkv (300.9 MiB)
This was a fun watch. :) Thanks!