Yosuga no Sora OP Single — Hiyoku no Hane [eufonius] [flac+scans(png)+cue+log] [KICM-3214]

Category:
Date:
2010-11-07 14:00 UTC
Submitter:
Seeders:
0
Information:
No information.
Leechers:
77
File size:
195.8 MiB
Completed:
0
Info hash:
da08c4d943a545b919f5d15636b71f608b717886
![Image](http://i11.fastpic.ru/big/2010/1107/4c/6a14a14a21fb179b8cc7b2a4c118b94c.jpg) Exact Audio Copy V0.99 prebeta 5 from 4. May 2009 EAC 取り込みログファイル 日付 : 27. 10月 2010, 18:28 Unknown Artist / Unknown Title 使用ドライブ : PIONEER DVD-RW DVR-215D Adapter: 2 ID: 5 読み込みモード : セキュアモード ドライブが正確なデータ転送能力を持つ : はい オーディオキャッシュを使用できる : はい C2エラー情報を検出する : いいえ 読み込みサンプルオフセット訂正値 : 18 リードイン・リードアウトをオーバーリードする : いいえ 欠落したオフセットサンプルを無音で補完する : はい 曲の先頭と末端の無音領域を削除する : いいえ CRC計算で無音のサンプルを使用するか : いいえ 使用インターフェース : Win NT & 2000用のクラスドライバ 使用出力モード : 内蔵WAV出力ルーチン サンプルフォーマット : 44.100 Hz; 16 Bit; ステレオ TOC情報を抜き出します トラック | スタート | 長さ | 始めのセクター | 最終セクター ---------------------------------------------------------------- 1 | 0:00.00 | 4:44.01 | 0 | 21300 2 | 4:44.01 | 4:34.67 | 21301 | 41917 3 | 9:18.68 | 4:43.25 | 41918 | 63167 4 | 14:02.18 | 4:34.02 | 63168 | 83719 範囲取り込みステータス & エラー 選択された範囲 ファイル名 D:\\Unknown Artist - Unknown Title.wav ピークレベル 100.0 % 範囲取り込み品質 100.0 % コピーCRC 8DF16E68 コピー OK エラーは発生しませんでした ステータス報告完了

File list

  • Yosuga no Sora OP Single — Hiyoku no Hane [eufonius] [flac+scans]
    • Scans
      • 01.png (8.4 MiB)
      • 02.png (16.5 MiB)
      • 03.png (12.6 MiB)
      • 04.png (10.7 MiB)
      • 05.png (10.9 MiB)
      • 06.png (3.2 MiB)
      • 07.png (7.4 MiB)
    • 01 Hiyoku no Hane.flac (34.8 MiB)
    • 02 Patori.flac (29.9 MiB)
    • 03 Hiyoku no Hane off vocal ver..flac (33.5 MiB)
    • 04 Patori off vocal ver..flac (27.4 MiB)
    • cover.jpg (150.7 KiB)
    • kanji.cue (870 Bytes)
    • log.log (1.9 KiB)
    • romaji.cue (859 Bytes)
    • wav.cue (643 Bytes)