Sleepy.Princess.in.the.Demon.Castle.S01.1080p.BluRay.10-Bit.Dual-Audio.FLAC5.1.x265-YURASUKA (Maou-jou de Oyasumi)

Category:
Date:
2023-09-09 00:43 UTC
Submitter:
Seeders:
13
Information:
Leechers:
0
File size:
13.4 GiB
Completed:
379
Info hash:
0797b9c65984e53b1045f75587560aa1269ff8b0
Sleepy Princess in the Demon Castle / Maou-jou de Oyasumi Season 1 (2020) A/V Source: Anon@U2 (JPBD) English Audio Source: DarkraiArceus001@U2 (USBD) Subtitles Source: [Bunny-Apocalypse@Nyaa](https://nyaa.si/view/1617862) [AtlasSubbed] [Encode Comparison](https://slow.pics/c/NW2P1k1H) ``` Complete name : Sleepy.Princess.in.the.Demon.Castle.S01E11.1080p.BluRay.10-Bit.Dual-Audio.FLAC5.1.x265-YURASUKA.mkv Format : Matroska Format version : Version 4 File size : 1.19 GiB Duration : 23 min 51 s Overall bit rate mode : Variable Overall bit rate : 7 137 kb/s Frame rate : 23.976 FPS Movie name : Sleepy Princess in the Demon Castle - S01E11 - YURASUKA Encoded date : 2023-09-08 13:49:51 UTC Writing application : mkvmerge v78.0 ('Running') 64-bit Writing library : libebml v1.4.4 + libmatroska v1.7.1 Attachments : aprifa.ttf / arial.ttf / COMICBOOK.TTF / DFPShiYiW5-B5 Strp.ttf / DFPShiYiW5-B5.TTF / EchoR.otf / EDOSZ.TTF / FOT-ComicReggaeStd-B.otf / FOT-ROCKNROLLSTDDBEN.TTF / garto16.ttf / HiraginoGyosyoW4JIS2004.otf / HiraginoGyosyoW8JIS2004.otf / KR Katlings Eight.ttf / LAURENCBROWN.TTF / LCALLIG.TTF / LinotypeFinnegan Medium.ttf / LinotypeFinnegan MediumItalic.ttf / OddsNSods-47eY.ttf / PEUNABRUSH-REGULAR.OTF / Schoolbell.ttf / Segoe UI Symbol Strp.ttf / seguisym.ttf / SPLAT.TTF / UDDigiKyokashoB.otf Video ID : 1 Format : HEVC Format/Info : High Efficiency Video Coding Format profile : Main 10@L5@High Codec ID : V_MPEGH/ISO/HEVC Duration : 23 min 51 s Bit rate : 4 935 kb/s Width : 1 920 pixels Height : 1 080 pixels Display aspect ratio : 16:9 Frame rate mode : Constant Frame rate : 23.976 (24000/1001) FPS Color space : YUV Chroma subsampling : 4:2:0 Bit depth : 10 bits Bits/(Pixel*Frame) : 0.099 Stream size : 842 MiB (69%) Title : YURASUKA 1080p x265 Writing library : x265 3.5:[Linux][GCC 11.2.0][64 bit] 10bit Encoding settings : cpuid=1111039 / frame-threads=5 / numa-pools=32 / wpp / no-pmode / no-pme / no-psnr / no-ssim / log-level=2 / input-csp=1 / input-res=1920x1080 / interlace=0 / total-frames=0 / level-idc=0 / high-tier=1 / uhd-bd=0 / ref=6 / no-allow-non-conformance / no-repeat-headers / annexb / no-aud / no-hrd / info / hash=0 / no-temporal-layers / open-gop / min-keyint=1 / keyint=360 / gop-lookahead=0 / bframes=16 / b-adapt=2 / b-pyramid / bframe-bias=0 / rc-lookahead=72 / lookahead-slices=4 / scenecut=40 / hist-scenecut=0 / radl=0 / no-splice / no-intra-refresh / ctu=32 / min-cu-size=8 / rect / amp / max-tu-size=32 / tu-inter-depth=3 / tu-intra-depth=3 / limit-tu=4 / rdoq-level=2 / dynamic-rd=0.00 / no-ssim-rd / signhide / tskip / nr-intra=0 / nr-inter=0 / no-constrained-intra / strong-intra-smoothing / max-merge=5 / limit-refs=3 / limit-modes / me=3 / subme=7 / merange=57 / temporal-mvp / no-frame-dup / no-hme / weightp / weightb / analyze-src-pics / deblock=0:0 / no-sao / no-sao-non-deblock / rd=6 / selective-sao=0 / no-early-skip / rskip / no-fast-intra / no-tskip-fast / no-cu-lossless / b-intra / no-splitrd-skip / rdpenalty=0 / psy-rd=2.00 / psy-rdoq=2.00 / no-rd-refine / no-lossless / cbqpoffs=-2 / crqpoffs=-2 / rc=crf / crf=16.0 / qcomp=0.72 / qpstep=4 / stats-write=0 / stats-read=0 / vbv-maxrate=15000 / vbv-bufsize=30000 / vbv-init=0.9 / min-vbv-fullness=50.0 / max-vbv-fullness=80.0 / crf-max=0.0 / crf-min=0.0 / ipratio=1.40 / pbratio=1.30 / aq-mode=3 / aq-strength=0.85 / cutree / zone-count=0 / no-strict-cbr / qg-size=32 / no-rc-grain / qpmax=69 / qpmin=0 / no-const-vbv / sar=1 / overscan=0 / videoformat=5 / range=0 / colorprim=1 / transfer=1 / colormatrix=1 / chromaloc=0 / display-window=0 / cll=0,0 / min-luma=0 / max-luma=1023 / log2-max-poc-lsb=8 / vui-timing-info / vui-hrd-info / slices=1 / no-opt-qp-pps / no-opt-ref-list-length-pps / no-multi-pass-opt-rps / scenecut-bias=0.05 / hist-threshold=0.03 / no-opt-cu-delta-qp / no-aq-motion / no-hdr10 / no-hdr10-opt / no-dhdr10-opt / no-idr-recovery-sei / analysis-reuse-level=0 / analysis-save-reuse-level=0 / analysis-load-reuse-level=0 / scale-factor=0 / refine-intra=0 / refine-inter=0 / refine-mv=1 / refine-ctu-distortion=0 / no-limit-sao / ctu-info=0 / no-lowpass-dct / refine-analysis-type=0 / copy-pic=1 / max-ausize-factor=1.0 / no-dynamic-refine / no-single-sei / no-hevc-aq / no-svt / no-field / qp-adaptation-range=1.00 / scenecut-aware-qp=0conformance-window-offsets / right=0 / bottom=0 / decoder-max-rate=0 / no-vbv-live-multi-pass Language : Japanese Default : Yes Forced : No Color range : Limited Color primaries : BT.709 Transfer characteristics : BT.709 Matrix coefficients : BT.709 Audio #1 ID : 2 Format : FLAC Format/Info : Free Lossless Audio Codec Codec ID : A_FLAC Duration : 23 min 50 s Bit rate mode : Variable Bit rate : 1 447 kb/s Channel(s) : 6 channels Channel layout : L R C LFE Ls Rs Sampling rate : 48.0 kHz Frame rate : 10.417 FPS (4608 SPF) Bit depth : 16 bits Compression mode : Lossless Delay relative to video : 55 ms Stream size : 247 MiB (20%) Title : English FLAC 5.1 Writing library : Lavf60.10.100 Language : English Default : Yes Forced : No MD5 of the unencoded content : 9B3E4344C76C1D37EF1AC0D5889BC518 Audio #2 ID : 3 Format : FLAC Format/Info : Free Lossless Audio Codec Codec ID : A_FLAC Duration : 23 min 51 s Bit rate mode : Variable Bit rate : 668 kb/s Channel(s) : 2 channels Channel layout : L R Sampling rate : 48.0 kHz Frame rate : 10.417 FPS (4608 SPF) Bit depth : 16 bits Compression mode : Lossless Stream size : 114 MiB (9%) Title : Japanese FLAC 2.0 Writing library : Lavf60.10.100 Language : Japanese Default : No Forced : No MD5 of the unencoded content : 7BC1633FBE0DCE682BFA4D369054D2E0 Text #1 ID : 4 Format : ASS Codec ID : S_TEXT/ASS Codec ID/Info : Advanced Sub Station Alpha Duration : 22 min 28 s Bit rate : 580 b/s Frame rate : 0.434 FPS Count of elements : 585 Compression mode : Lossless Stream size : 95.6 KiB (0%) Title : Signs & Songs [Bunny-Apocalypse] Language : English Default : Yes Forced : Yes Text #2 ID : 5 Format : ASS Codec ID : S_TEXT/ASS Codec ID/Info : Advanced Sub Station Alpha Duration : 23 min 44 s Bit rate : 914 b/s Frame rate : 0.958 FPS Count of elements : 1364 Compression mode : Lossless Stream size : 159 KiB (0%) Title : Full Subtitles [AtlasSubbed] Language : English Default : No Forced : No Menu 00:00:00.000 : en:Intro 00:01:24.001 : en:OP 00:02:54.049 : en:Chapter 1 00:08:27.048 : en:Chapter 2 00:15:35.977 : en:Chapter 3 00:22:05.032 : en:ED 00:23:34.997 : en:Preview ``` Dead end for a sucker that’s a sucker like me. 私のようなカモの行き止まりです。

File list

  • Sleepy.Princess.in.the.Demon.Castle.S01.1080p.BluRay.10-Bit.Dual-Audio.FLAC5.1.x265-YURASUKA
    • Sleepy.Princess.in.the.Demon.Castle.S01E01.1080p.BluRay.10-Bit.Dual-Audio.FLAC5.1.x265-YURASUKA.mkv (1.2 GiB)
    • Sleepy.Princess.in.the.Demon.Castle.S01E02.1080p.BluRay.10-Bit.Dual-Audio.FLAC5.1.x265-YURASUKA.mkv (1.1 GiB)
    • Sleepy.Princess.in.the.Demon.Castle.S01E03.1080p.BluRay.10-Bit.Dual-Audio.FLAC5.1.x265-YURASUKA.mkv (1.2 GiB)
    • Sleepy.Princess.in.the.Demon.Castle.S01E04.1080p.BluRay.10-Bit.Dual-Audio.FLAC5.1.x265-YURASUKA.mkv (1.1 GiB)
    • Sleepy.Princess.in.the.Demon.Castle.S01E05.1080p.BluRay.10-Bit.Dual-Audio.FLAC5.1.x265-YURASUKA.mkv (1.1 GiB)
    • Sleepy.Princess.in.the.Demon.Castle.S01E06.1080p.BluRay.10-Bit.Dual-Audio.FLAC5.1.x265-YURASUKA.mkv (1.0 GiB)
    • Sleepy.Princess.in.the.Demon.Castle.S01E07.1080p.BluRay.10-Bit.Dual-Audio.FLAC5.1.x265-YURASUKA.mkv (1.2 GiB)
    • Sleepy.Princess.in.the.Demon.Castle.S01E08.1080p.BluRay.10-Bit.Dual-Audio.FLAC5.1.x265-YURASUKA.mkv (1.1 GiB)
    • Sleepy.Princess.in.the.Demon.Castle.S01E09.1080p.BluRay.10-Bit.Dual-Audio.FLAC5.1.x265-YURASUKA.mkv (1.1 GiB)
    • Sleepy.Princess.in.the.Demon.Castle.S01E10.1080p.BluRay.10-Bit.Dual-Audio.FLAC5.1.x265-YURASUKA.mkv (1.2 GiB)
    • Sleepy.Princess.in.the.Demon.Castle.S01E11.1080p.BluRay.10-Bit.Dual-Audio.FLAC5.1.x265-YURASUKA.mkv (1.2 GiB)
    • Sleepy.Princess.in.the.Demon.Castle.S01E12.1080p.BluRay.10-Bit.Dual-Audio.FLAC5.1.x265-YURASUKA.mkv (1.1 GiB)