[neoDESU] Beast Tamer [Season 1] [BD 1080p x265 HEVC OPUS AAC] [Dual Audio] Yuusha Party wo Tsuihou sareta Beast Tamer, Saikyoushu no Nekomimi Shoujo to Deau

Category:
Date:
2023-08-31 16:39 UTC
Submitter:
Seeders:
26
Information:
Leechers:
1
File size:
4.6 GiB
Completed:
1555
Info hash:
7642c6b513b9c0f04142fcf9a1a418d9bc311d30
![](https://i.lensdump.com/i/6BKULK.png) *Come hang out in **[Discord](https://discord.gg/47Q7FdB54e)*** #### **[Beast Tamer [Season 1]](https://myanimelist.net/anime/52046/Yuusha_Party_wo_Tsuihou_sareta_Beast_Tamer_Saikyoushu_no_Nekomimi_Shoujo_to_Deau)** ▶️ **[Trailer](https://www.youtube.com/watch?v=8TOWzr56nFA)** --- **Notes:** . Resampled script . Restyled script and changed fonts . Created signs TS for recurring signs . Created styled OP & ED . Created chapters --- **Synopsis** Among all the beasts that roam the world, there are unique types of "ultimate species" that harbor immense strength and magical prowess considered to be at the top of the power scale. As such, many humans covet their abilities, leading some of these species to the brink of extinction. As a beast tamer, Rein Shroud can employ the assistance of various animals for many tasks, such as reconnaissance and logistics. By virtue of his ability, he joins a party led by the vile and manipulative hero Arios Orlando, only to be banished after six months due to his uselessness as a non-combative class. However, unbeknownst to the team that cast him away, Rein is an exception among beast tamers. His potential becomes apparent when he meets Kanade—a cat spirit who is also one of the ultimate species—and is able to form a contract with her. With Kanade by his side, Rein sets out on his journey as an adventurer, steadily rising up the ranks and meeting more ultimate species along the way. ![](https://b.l3n.co/i/VGFzKa.png) --- **Language Options** I included two simple scripts that you can apply to these files to do the following (Windows only): 1. Make [Single Audio] Japanese: Throws out *English audio* and *Signs&Songs subtitles* tracks 2. Make [Single Audio] English: Throws out *Japanese audio* and *Dialogue subtitles* tracks To apply these put all the video files into the *Language Options* folder and run the .bat file. *Don't combine them and only use them once together with the base files.* --- **Source** 🗃️ Video and JPN Audio (JPN BDREMUX): **[YE]** 🗃️ ENG Audio (WEB): **[[Yameii]](https://nyaa.si/view/1591054)** 🗃️ Subtitles: **[[SubsPlease]](https://nyaa.si/view/1661662)** 💬 *Subtitles Info: [SubsPlease] Base [Me] Edits, see notes* *Thank you all for making this possible <3* --- **Media Info** 🆔 **[Full Mediainfo incl. Encoder Settings](https://pastebin.com/1x9EmL8B)** ``` General Unique ID : 211142922374582361319129631153787447524 (0x9ED8A5CE01BB6909DCACF55AF48F28E4) Complete name : Beast Tamer - S01E01.mkv Format : Matroska Format version : Version 4 File size : 383 MiB Duration : 23 min 41 s Overall bit rate : 2 262 kb/s Encoded date : UTC 2023-08-31 10:05:30 Writing application : mkvmerge v72.0.0 ('Minuano (Six-eight)') 64-bit Writing library : libebml v1.4.4 + libmatroska v1.7.1 Attachments : bulky.ttf / TT Rounds Neue Trial Bold.ttf / verdanab.ttf / CRONOSPRO-BOLD.OTF / CRONOSPRO-BOLDIT.OTF / MADE Tommy Soft Regular PERSONAL USE.otf / Roboto-Medium.ttf / Roboto-MediumItalic.ttf / arial.ttf / arialbd.ttf / comic.ttf / comicbd.ttf / times.ttf / timesbd.ttf / trebuc.ttf / trebucbd.ttf / verdana.ttf / verdanab.ttf / CONSOLA.TTF / CONSOLAB.TTF Video ID : 1 Format : HEVC Format/Info : High Efficiency Video Coding Format profile : Main 10@L4@High Codec ID : V_MPEGH/ISO/HEVC Duration : 23 min 41 s Bit rate : 1 960 kb/s Width : 1 920 pixels Height : 1 080 pixels Display aspect ratio : 16:9 Frame rate mode : Constant Frame rate : 23.976 (24000/1001) FPS Color space : YUV Chroma subsampling : 4:2:0 Bit depth : 10 bits Bits/(Pixel*Frame) : 0.039 Stream size : 332 MiB (87%) Writing library : x265 3.5+37+12-4e46995bc:[Windows][MSVC 1931][64 bit] 10bit Encoding settings : <Check Link Above> Default : Yes Forced : No Audio #1 ID : 2 Format : AAC LC Format/Info : Advanced Audio Codec Low Complexity Codec ID : A_AAC-2 Duration : 23 min 40 s Bit rate : 128 kb/s Channel(s) : 2 channels Channel layout : L R Sampling rate : 44.1 kHz Frame rate : 43.066 FPS (1024 SPF) Compression mode : Lossy Stream size : 21.7 MiB (6%) Title : English Language : English Default : Yes Forced : No Audio #2 ID : 3 Format : Opus Codec ID : A_OPUS Duration : 23 min 41 s Bit rate : 129 kb/s Channel(s) : 2 channels Channel layout : L R Sampling rate : 48.0 kHz Frame rate : 50.000 FPS (960 SPF) Bit depth : 32 bits Compression mode : Lossy Stream size : 21.8 MiB (6%) Title : Japanese Language : Japanese Default : No Forced : No Text #1 ID : 4 Format : ASS Codec ID : S_TEXT/ASS Codec ID/Info : Advanced Sub Station Alpha Duration : 23 min 8 s Bit rate : 649 b/s Frame rate : 0.462 FPS Count of elements : 642 Compression mode : Lossless Stream size : 110 KiB (0%) Title : Signs & Songs Language : English Default : No Forced : Yes Text #2 ID : 5 Format : ASS Codec ID : S_TEXT/ASS Codec ID/Info : Advanced Sub Station Alpha Duration : 23 min 24 s Bit rate : 770 b/s Frame rate : 0.703 FPS Count of elements : 987 Compression mode : Lossless Stream size : 132 KiB (0%) Title : Dialogue Language : English Default : Yes Forced : No Menu 00:00:00.000 : :Intro 00:00:28.010 : :OP 00:01:58.010 : :Episode 00:20:15.030 : :ED 00:21:45.030 : :Outro 00:23:35.020 : :Preview ```

File list

  • [neoDESU] Beast Tamer [Season 1] [BD 1080p x265 HEVC OPUS AAC] [Dual Audio]
    • Language Options
      • 1. Make [Single Audio] English.bat (254 Bytes)
      • 2. Make [Single Audio] Japanese.bat (254 Bytes)
      • mkvmerge.exe (9.6 MiB)
      • readme.txt (511 Bytes)
    • Beast Tamer - S01E01.mkv (383.2 MiB)
    • Beast Tamer - S01E02.mkv (341.1 MiB)
    • Beast Tamer - S01E03.mkv (359.0 MiB)
    • Beast Tamer - S01E04.mkv (350.0 MiB)
    • Beast Tamer - S01E05.mkv (435.8 MiB)
    • Beast Tamer - S01E06.mkv (347.5 MiB)
    • Beast Tamer - S01E07.mkv (404.2 MiB)
    • Beast Tamer - S01E08.mkv (359.5 MiB)
    • Beast Tamer - S01E09.mkv (311.5 MiB)
    • Beast Tamer - S01E10.mkv (283.4 MiB)
    • Beast Tamer - S01E11.mkv (315.8 MiB)
    • Beast Tamer - S01E12.mkv (417.8 MiB)
    • Beast Tamer - S01E13.mkv (378.6 MiB)
Sankyuu!

sff

User
Noice Release
Unfortunately as far as I saw the bluray of this still has the holy light rays ""censorship""

neoborn (uploader)

User
That's quite unfortunate indeed >_< ![](https://thumbs.gfycat.com/ConsciousLavishGosling-size_restricted.gif)
2 lines in the OP TL are a little off. They come from the show's dialogue where Rein Shroud is reciting the contract spell. The 2 lines should read "An oath in our hearts, hope in our souls".
w̶h̶e̶r̶e̶ c̶a̶n̶ I̶ g̶e̶t̶ a̶ b̶i̶g̶g̶e̶r̶ f̶i̶l̶e̶ s̶i̶z̶e̶ v̶e̶r̶s̶i̶o̶n̶ o̶f̶ t̶h̶i̶s̶ b̶l̶u̶r̶a̶y̶?̶ its ok, I found one, thanks though.