[neoDESU] Skip and Loafer [Season 1] [BD 1080p x265 HEVC OPUS] Skip to Loafer

Category:
Date:
2023-08-31 16:39 UTC
Submitter:
Seeders:
56
Information:
Leechers:
2
File size:
2.8 GiB
Completed:
1900
Info hash:
03a8be0ecb14133cd1684f58066a0aa70f8fbc0f
![](https://i.lensdump.com/i/6BKULK.png) *Come hang out in **[Discord](https://discord.gg/47Q7FdB54e)*** #### **[Skip and Loafer [Season 1]](https://myanimelist.net/anime/50416/Skip_to_Loafer)** ▶️ **[Trailer](https://www.youtube.com/watch?v=yU7AJxVOZKQ)** --- **Synopsis** In order to pursue her dream of bringing positive changes to Japan, Mitsumi Iwakura leaves her countryside town to attend a prestigious high school in the hustle and bustle of Tokyo. As she has already mapped a clear life plan, she has absolute confidence that there will be zero mishaps from then onwards. Despite her ambitious promise, the country girl ends up running late on the first day when she gets lost on her way to school. Fortunately, she meets a fellow first-year student, Sousuke Shima, who is in the same situation and offers to go with her. They eventually make it to school, but the misfortunes do not end there, as Mitsumi leaves an unfavorable first impression in front of her classmates. Nevertheless, the class soon takes notice of her friendship with Sousuke despite their opposing personalities. Only time will tell whether Mitsumi will be able to forge fruitful relationships with her classmates, and she will certainly not be alone. ![](https://b.l3n.co/i/9iHkYK.png) --- **Source** 🗃️ Video and JPN Audio (JPN BDMV): **[Ronny]** 🗃️ Subtitles: **[[sam]](https://nyaa.si/view/1687447)** 💬 *Subtitles Info: [SubsPlease] Base [Zedjones/Flower] OP/ED* *Thank you all for making this possible <3* --- **Media Info** ``` General Unique ID : 44508926034549435649085837409627504284 (0x217C1B7AE99800D1BD657EF490AD7E9C) Complete name : Skip and Loafer - S01E01.mkv Format : Matroska Format version : Version 4 File size : 257 MiB Duration : 23 min 40 s Overall bit rate : 1 521 kb/s Encoded date : UTC 2023-08-31 12:26:38 Writing application : mkvmerge v72.0.0 ('Minuano (Six-eight)') 64-bit Writing library : libebml v1.4.4 + libmatroska v1.7.1 / Lavf60.3.100 Attachments : anna.ttf / arial-Bold.TTF / arial.ttf / ArialBlack.ttf / ComicSansMs-Bold.TTF / georgia.TTF / TimesNewRoman-Bold.ttf / TimesNewRoman-BoldItalic.TTF / Fot-つばめStdR.otf / GandhiSans-Bold.OTF / GandhiSans-BoldItalic.OTF Video ID : 1 Format : HEVC Format/Info : High Efficiency Video Coding Format profile : Main 10@L4@High Codec ID : V_MPEGH/ISO/HEVC Duration : 23 min 40 s Bit rate : 1 335 kb/s Width : 1 920 pixels Height : 1 080 pixels Display aspect ratio : 16:9 Frame rate mode : Constant Frame rate : 23.976 (24000/1001) FPS Color space : YUV Chroma subsampling : 4:2:0 Bit depth : 10 bits Bits/(Pixel*Frame) : 0.027 Stream size : 226 MiB (88%) Writing library : x265 3.5+37+12-4e46995bc:[Windows][MSVC 1931][64 bit] 10bit Encoding settings : cpuid=1111039 / frame-threads=5 / numa-pools=32 / wpp / no-pmode / no-pme / no-psnr / no-ssim / log-level=2 / input-csp=1 / input-res=1920x1080 / interlace=0 / total-frames=142 / level-idc=40 / high-tier=1 / uhd-bd=0 / ref=5 / no-allow-non-conformance / no-repeat-headers / annexb / no-aud / no-eob / no-eos / no-hrd / info / hash=0 / no-temporal-layers / open-gop / min-keyint=23 / keyint=250 / gop-lookahead=0 / bframes=16 / b-adapt=2 / b-pyramid / bframe-bias=0 / rc-lookahead=120 / lookahead-slices=4 / scenecut=40 / no-hist-scenecut / radl=0 / no-splice / no-intra-refresh / ctu=64 / min-cu-size=8 / rect / no-amp / max-tu-size=32 / tu-inter-depth=1 / tu-intra-depth=1 / limit-tu=0 / rdoq-level=1 / dynamic-rd=0.00 / no-ssim-rd / signhide / no-tskip / nr-intra=0 / nr-inter=0 / no-constrained-intra / no-strong-intra-smoothing / max-merge=3 / limit-refs=3 / limit-modes / me=3 / subme=3 / merange=57 / temporal-mvp / no-frame-dup / no-hme / weightp / no-weightb / no-analyze-src-pics / deblock=-1:-1 / no-sao / no-sao-non-deblock / rd=4 / selective-sao=0 / no-early-skip / rskip / no-fast-intra / no-tskip-fast / no-cu-lossless / no-b-intra / no-splitrd-skip / rdpenalty=0 / psy-rd=1.50 / psy-rdoq=2.00 / no-rd-refine / no-lossless / cbqpoffs=0 / crqpoffs=0 / rc=crf / crf=22.0 / qcomp=0.60 / qpstep=4 / stats-write=0 / stats-read=0 / vbv-maxrate=30000 / vbv-bufsize=30000 / vbv-init=0.9 / min-vbv-fullness=50.0 / max-vbv-fullness=80.0 / crf-max=0.0 / crf-min=0.0 / ipratio=1.40 / pbratio=1.30 / aq-mode=3 / aq-strength=0.80 / aq-bias-strength=1.00 / cutree / zone-count=0 / no-strict-cbr / qg-size=32 / no-rc-grain / qpmax=69 / qpmin=0 / no-const-vbv / sar=0 / overscan=0 / videoformat=5 / range=0 / colorprim=2 / transfer=2 / colormatrix=2 / chromaloc=0 / display-window=0 / cll=0,0 / min-luma=0 / max-luma=1023 / log2-max-poc-lsb=8 / vui-timing-info / vui-hrd-info / slices=1 / no-opt-qp-pps / no-opt-ref-list-length-pps / no-multi-pass-opt-rps / scenecut-bias=0.05 / hist-threshold=0.03 / no-opt-cu-delta-qp / no-aq-motion / no-hdr10 / no-hdr10-opt / no-dhdr10-opt / no-idr-recovery-sei / analysis-reuse-level=0 / analysis-save-reuse-level=0 / analysis-load-reuse-level=0 / scale-factor=0 / refine-intra=0 / refine-inter=0 / refine-mv=1 / refine-ctu-distortion=0 / no-limit-sao / ctu-info=0 / no-lowpass-dct / refine-analysis-type=0 / copy-pic=1 / max-ausize-factor=1.0 / no-dynamic-refine / no-single-sei / no-hevc-aq / no-svt / no-field / qp-adaptation-range=1.00 / scenecut-aware-qp=0conformance-window-offsets / right=0 / bottom=0 / decoder-max-rate=0 / no-vbv-live-multi-pass Default : Yes Forced : No Audio ID : 2 Format : Opus Codec ID : A_OPUS Duration : 23 min 40 s Bit rate : 126 kb/s Channel(s) : 2 channels Channel layout : L R Sampling rate : 48.0 kHz Frame rate : 50.000 FPS (960 SPF) Bit depth : 16 bits Compression mode : Lossy Stream size : 21.3 MiB (8%) Title : Japanese Writing library : Lavc60.3.100 libopus Language : Japanese Default : Yes Forced : No Text ID : 3 Format : ASS Codec ID : S_TEXT/ASS Codec ID/Info : Advanced Sub Station Alpha Duration : 23 min 34 s Bit rate : 216 b/s Frame rate : 0.357 FPS Count of elements : 505 Compression mode : Lossless Stream size : 37.5 KiB (0%) Title : Dialogue Language : English Default : Yes Forced : No Menu 00:00:00.000 : en:Prologue 00:00:39.039 : en:Opening 00:02:09.004 : en:Part A 00:10:45.061 : en:Part B 00:22:10.037 : en:Ending ```

File list

  • [neoDESU] Skip and Loafer [Season 1] [BD 1080p x265 HEVC OPUS]
    • Skip and Loafer - S01E01.mkv (257.4 MiB)
    • Skip and Loafer - S01E02.mkv (247.4 MiB)
    • Skip and Loafer - S01E03.mkv (243.7 MiB)
    • Skip and Loafer - S01E04.mkv (253.6 MiB)
    • Skip and Loafer - S01E05.mkv (242.2 MiB)
    • Skip and Loafer - S01E06.mkv (232.8 MiB)
    • Skip and Loafer - S01E07.mkv (228.6 MiB)
    • Skip and Loafer - S01E08.mkv (229.8 MiB)
    • Skip and Loafer - S01E09.mkv (249.4 MiB)
    • Skip and Loafer - S01E10.mkv (261.4 MiB)
    • Skip and Loafer - S01E11.mkv (237.1 MiB)
    • Skip and Loafer - S01E12.mkv (224.9 MiB)