[neoDESU] Parallel World Pharmacy [Season 1] [BD 1080p x265 HEVC OPUS] [Dual Audio] Isekai Yakkyoku

Category:
Date:
2023-08-29 19:42 UTC
Submitter:
Seeders:
44
Information:
Leechers:
1
File size:
2.4 GiB
Completed:
1882
Info hash:
f44fdd33c5ca5d18a4fe56a519bd2065229f57d6
![](https://i.lensdump.com/i/6BKULK.png) *Come hang out in **[Discord](https://discord.gg/47Q7FdB54e)*** #### **[Parallel World Pharmacy [Season 1]](https://myanimelist.net/anime/49438/Isekai_Yakkyoku)** ▶️ **[Trailer](https://www.youtube.com/watch?v=TmbArYYJSG0)** --- **Synopsis** World-class medical researcher Kanji Yakutani lost his little sister to a tumor years ago due to ineffective treatment. To honor her legacy, he has dedicated his research to developing new medications for such conditions. But as fate would have it, he overworks himself and passes away at the age of 31, only to be given a second chance at life in another world. When he wakes up, Kanji finds himself in the body of a 10-year-old boy named Falma de Médicis, the son of an esteemed family of medical practitioners in the Sain Fleuve Empire. Bearing the mark of a deity's divine blessing, Falma is capable of performing a unique divine art, allowing him to create and reduce any substance with the knowledge of its chemical properties. After reading through some pharmacology books, Falma realizes that this world is operating on similar medical practices as in ancient times. He also learns that medicine is an exclusive privilege to the nobility, depriving commoners of proper medical care. Using the knowledge from his past life and the divine abilities granted to him, Falma resolves to make medicine available to those who need it—irrespective of class. ![](https://b.l3n.co/i/VGLr4C.png) --- **Language Options** I included two simple scripts that you can apply to these files to do the following (Windows only): 1. Make [Single Audio] Japanese: Throws out *English audio* and *Signs&Songs subtitles* tracks 2. Make [Single Audio] English: Throws out *Japanese audio* and *Dialogue subtitles* tracks To apply these put all the video files into the *Language Options* folder and run the .bat file. *Don't combine them and only use them once together with the base files.* --- **Source** 🗃️ Video and Audio (US BDREMUX): **[ZR]** 🗃️ Subtitles: **[[Asakura]](https://nyaa.si/view/1585765)** 💬 *Subtitles Info: [Asakura]* *Thank you all for making this possible <3* --- **Media Info** 🆔 **[Full Mediainfo incl. Encoder Settings](https://pastebin.com/eMdx4nES)** ``` General Unique ID : 153099141669853449526004972985753164929 (0x732DD277C7A424030FD21A7BDC625C81) Complete name : Parallel World Pharmacy - S01E01.mkv Format : Matroska Format version : Version 4 File size : 225 MiB Duration : 23 min 42 s Overall bit rate : 1 325 kb/s Encoded date : UTC 2023-08-29 16:12:55 Writing application : mkvmerge v72.0.0 ('Minuano (Six-eight)') 64-bit Writing library : libebml v1.4.4 + libmatroska v1.7.1 / Lavf60.3.100 Attachments : IBMPlexSerif-Regular.otf / pharmacy.ttf / sina-regular.otf / TSUKUBMDMINSTD-E-EN.ttf / akzentrounded-regular.ttf / CroissantOne-Regular.ttf / Gandhisans-Bold.otf / Gandhisans-Bolditalic.otf Video ID : 1 Format : HEVC Format/Info : High Efficiency Video Coding Format profile : Main 10@L4@High Codec ID : V_MPEGH/ISO/HEVC Duration : 23 min 42 s Bit rate : 1 037 kb/s Width : 1 920 pixels Height : 1 080 pixels Display aspect ratio : 16:9 Frame rate mode : Constant Frame rate : 23.976 (24000/1001) FPS Color space : YUV Chroma subsampling : 4:2:0 Bit depth : 10 bits Bits/(Pixel*Frame) : 0.021 Stream size : 176 MiB (78%) Writing library : x265 3.5+37+12-4e46995bc:[Windows][MSVC 1931][64 bit] 10bit Encoding settings : <Check Link Above> Default : Yes Forced : No Audio #1 ID : 2 Format : Opus Codec ID : A_OPUS Duration : 23 min 42 s Bit rate : 125 kb/s Channel(s) : 2 channels Channel layout : L R Sampling rate : 48.0 kHz Frame rate : 50.000 FPS (960 SPF) Bit depth : 32 bits Compression mode : Lossy Stream size : 21.2 MiB (9%) Title : English Writing library : Lavc60.3.100 libopus Language : English Default : Yes Forced : No Audio #2 ID : 3 Format : Opus Codec ID : A_OPUS Duration : 23 min 42 s Bit rate : 123 kb/s Channel(s) : 2 channels Channel layout : L R Sampling rate : 48.0 kHz Frame rate : 50.000 FPS (960 SPF) Bit depth : 32 bits Compression mode : Lossy Stream size : 20.9 MiB (9%) Title : Japanese Writing library : Lavc60.3.100 libopus Language : Japanese Default : No Forced : No Text #1 ID : 4 Format : ASS Codec ID : S_TEXT/ASS Codec ID/Info : Advanced Sub Station Alpha Duration : 23 min 40 s Bit rate : 14.4 kb/s Frame rate : 4.039 FPS Count of elements : 5736 Compression mode : Lossless Stream size : 2.43 MiB (1%) Title : Signs & Songs Language : English Default : No Forced : Yes Text #2 ID : 5 Format : ASS Codec ID : S_TEXT/ASS Codec ID/Info : Advanced Sub Station Alpha Duration : 23 min 40 s Bit rate : 14.5 kb/s Frame rate : 4.258 FPS Count of elements : 6047 Compression mode : Lossless Stream size : 2.45 MiB (1%) Title : Dialogue Language : English Default : Yes Forced : No Menu 00:00:00.000 : :Intro 00:04:31.000 : :OP 00:06:01.010 : :Episode 00:23:36.100 : :Preview ```

File list

  • [neoDESU] Parallel World Pharmacy [Season 1] [BD 1080p x265 HEVC OPUS] [Dual Audio]
    • Language Options
      • 1. Make [Single Audio] English.bat (254 Bytes)
      • 2. Make [Single Audio] Japanese.bat (254 Bytes)
      • mkvmerge.exe (9.6 MiB)
      • readme.txt (511 Bytes)
    • Parallel World Pharmacy - S01E01.mkv (224.7 MiB)
    • Parallel World Pharmacy - S01E02.mkv (174.3 MiB)
    • Parallel World Pharmacy - S01E03.mkv (197.3 MiB)
    • Parallel World Pharmacy - S01E04.mkv (155.3 MiB)
    • Parallel World Pharmacy - S01E05.mkv (163.7 MiB)
    • Parallel World Pharmacy - S01E06.mkv (229.3 MiB)
    • Parallel World Pharmacy - S01E07.mkv (192.3 MiB)
    • Parallel World Pharmacy - S01E08.mkv (146.1 MiB)
    • Parallel World Pharmacy - S01E09.mkv (298.4 MiB)
    • Parallel World Pharmacy - S01E10.mkv (243.9 MiB)
    • Parallel World Pharmacy - S01E11.mkv (165.0 MiB)
    • Parallel World Pharmacy - S01E12.mkv (281.4 MiB)
Thanks!!!! very good!!!!!!!!!!

neoborn (uploader)

User
![](https://i.imgur.com/IX3oOFy.png)
Will there be a BDMV or BD Remux for it?
Thanks for this! Have you gone back to HEVC from AV1?
@DKILLER1 Desirable. I want the Lossless audio for all 12 episodes.
BDs? What's the source? Never seen any BD uploaded anywhere. Also I hope you used correct subtitle tracks.
CR is a better source for video for this show.