[neoDESU] Yuri is My Job! [Season 1] [BD 1080p x265 HEVC OPUS] Watashi no Yuri wa Oshigoto desu!

Category:
Date:
2023-08-29 16:47 UTC
Submitter:
Seeders:
27
Information:
Leechers:
0
File size:
2.6 GiB
Completed:
1205
Info hash:
edae8cf901bcc9d78f8c4bd7a249812575c5bf77
![](https://i.lensdump.com/i/6BKULK.png) *Come hang out in **[Discord](https://discord.gg/47Q7FdB54e)*** #### **[Yuri is My Job! [Season 1]](https://myanimelist.net/anime/51817/Watashi_no_Yuri_wa_Oshigoto_desu)** ▶️ **[Trailer](https://www.youtube.com/watch?v=dOEd1x0__Xs)** --- **Synopsis** Hime Shiraki appears to have it all: an angelic voice, an innocent personality, and an adorable face that enamors all onlookers. However, her cuteness is all a lie—it is purely an act to achieve her self-centered goal of marrying a rich suitor. Though she often plays up her innocence to gain favor from those around her, Hime's facade does not absolve her of responsibility when an accident leaves Mai Koshiba injured. Learning that Mai is the manager of Café Liebe—a cafe themed as an all-girls academy—Hime is coerced into taking up a part-time position until Mai recovers. However, Hime's facade cannot cover up her shortcomings at being a waitress, earning her the ire of one of her coworkers, Mitsuki Yano, the elegant "onee-sama" who often berates Hime over her mistakes. As Hime struggles to adjust to her new job in addition to Mitsuki's unrelenting hostility, her real personality begins seeping through the cracks. ![](https://c.l3n.co/i/VGUXcQ.png) --- **Source** 🗃️ Video and JPN Audio (JPN BDMV): **[Ronny]** 🗃️ Subtitles: **[[Chihiro]](https://nyaa.si/view/1660310)** 💬 *Subtitles Info: [Chihiro]* *Thank you all for making this possible <3* --- **Media Info** ``` General Unique ID : 62875968880358016078418338317011668306 (0x2F4D789BA447A63EB02278132DE24D52) Complete name : Yuri is My Job - S01E01.mkv Format : Matroska Format version : Version 4 File size : 290 MiB Duration : 23 min 42 s Overall bit rate : 1 710 kb/s Encoded date : UTC 2023-08-29 13:15:39 Writing application : mkvmerge v72.0.0 ('Minuano (Six-eight)') 64-bit Writing library : libebml v1.4.4 + libmatroska v1.7.1 / Lavf60.3.100 Attachments : CUTE FROG.ttf / FRAMDCN.TTF / JanieHmkBold.TTF / ONYX.TTF / Raleway Bold.ttf / Roboto-Medium.ttf / Timeless.ttf / Timeless-Bold.ttf / Vesta-Bold.ttf / Vanilla Twilight.otf Video ID : 1 Format : HEVC Format/Info : High Efficiency Video Coding Format profile : Main 10@L4@High Codec ID : V_MPEGH/ISO/HEVC Duration : 23 min 42 s Bit rate : 1 568 kb/s Width : 1 920 pixels Height : 1 080 pixels Display aspect ratio : 16:9 Frame rate mode : Constant Frame rate : 23.976 (24000/1001) FPS Color space : YUV Chroma subsampling : 4:2:0 Bit depth : 10 bits Bits/(Pixel*Frame) : 0.032 Stream size : 266 MiB (92%) Writing library : x265 3.5+37+12-4e46995bc:[Windows][MSVC 1931][64 bit] 10bit Encoding settings : cpuid=1111039 / frame-threads=5 / numa-pools=32 / wpp / no-pmode / no-pme / no-psnr / no-ssim / log-level=2 / input-csp=1 / input-res=1920x1080 / interlace=0 / total-frames=24 / level-idc=40 / high-tier=1 / uhd-bd=0 / ref=5 / no-allow-non-conformance / no-repeat-headers / annexb / no-aud / no-eob / no-eos / no-hrd / info / hash=0 / no-temporal-layers / open-gop / min-keyint=23 / keyint=250 / gop-lookahead=0 / bframes=16 / b-adapt=2 / b-pyramid / bframe-bias=0 / rc-lookahead=120 / lookahead-slices=4 / scenecut=40 / no-hist-scenecut / radl=0 / no-splice / no-intra-refresh / ctu=64 / min-cu-size=8 / rect / no-amp / max-tu-size=32 / tu-inter-depth=1 / tu-intra-depth=1 / limit-tu=0 / rdoq-level=1 / dynamic-rd=0.00 / no-ssim-rd / signhide / no-tskip / nr-intra=0 / nr-inter=0 / no-constrained-intra / no-strong-intra-smoothing / max-merge=3 / limit-refs=3 / limit-modes / me=3 / subme=3 / merange=57 / temporal-mvp / no-frame-dup / no-hme / weightp / no-weightb / no-analyze-src-pics / deblock=-1:-1 / no-sao / no-sao-non-deblock / rd=4 / selective-sao=0 / no-early-skip / rskip / no-fast-intra / no-tskip-fast / no-cu-lossless / no-b-intra / no-splitrd-skip / rdpenalty=0 / psy-rd=1.50 / psy-rdoq=2.00 / no-rd-refine / no-lossless / cbqpoffs=0 / crqpoffs=0 / rc=crf / crf=22.0 / qcomp=0.60 / qpstep=4 / stats-write=0 / stats-read=0 / vbv-maxrate=30000 / vbv-bufsize=30000 / vbv-init=0.9 / min-vbv-fullness=50.0 / max-vbv-fullness=80.0 / crf-max=0.0 / crf-min=0.0 / ipratio=1.40 / pbratio=1.30 / aq-mode=3 / aq-strength=0.80 / aq-bias-strength=1.00 / cutree / zone-count=0 / no-strict-cbr / qg-size=32 / no-rc-grain / qpmax=69 / qpmin=0 / no-const-vbv / sar=0 / overscan=0 / videoformat=5 / range=0 / colorprim=2 / transfer=2 / colormatrix=2 / chromaloc=0 / display-window=0 / cll=0,0 / min-luma=0 / max-luma=1023 / log2-max-poc-lsb=8 / vui-timing-info / vui-hrd-info / slices=1 / no-opt-qp-pps / no-opt-ref-list-length-pps / no-multi-pass-opt-rps / scenecut-bias=0.05 / hist-threshold=0.03 / no-opt-cu-delta-qp / no-aq-motion / no-hdr10 / no-hdr10-opt / no-dhdr10-opt / no-idr-recovery-sei / analysis-reuse-level=0 / analysis-save-reuse-level=0 / analysis-load-reuse-level=0 / scale-factor=0 / refine-intra=0 / refine-inter=0 / refine-mv=1 / refine-ctu-distortion=0 / no-limit-sao / ctu-info=0 / no-lowpass-dct / refine-analysis-type=0 / copy-pic=1 / max-ausize-factor=1.0 / no-dynamic-refine / no-single-sei / no-hevc-aq / no-svt / no-field / qp-adaptation-range=1.00 / scenecut-aware-qp=0conformance-window-offsets / right=0 / bottom=0 / decoder-max-rate=0 / no-vbv-live-multi-pass Default : Yes Forced : No Audio ID : 2 Format : Opus Codec ID : A_OPUS Duration : 23 min 42 s Bit rate : 122 kb/s Channel(s) : 2 channels Channel layout : L R Sampling rate : 48.0 kHz Frame rate : 50.000 FPS (960 SPF) Bit depth : 32 bits Compression mode : Lossy Stream size : 20.7 MiB (7%) Title : Japanese Writing library : Lavc60.3.100 libopus Language : Japanese Default : Yes Forced : No Text ID : 3 Format : ASS Codec ID : S_TEXT/ASS Codec ID/Info : Advanced Sub Station Alpha Duration : 23 min 23 s Bit rate : 11.3 kb/s Frame rate : 6.426 FPS Count of elements : 9020 Compression mode : Lossless Stream size : 1.88 MiB (1%) Title : Dialogue Language : English Default : Yes Forced : No Menu 00:00:00.000 : :Opening 00:01:30.007 : :Watashi no Yuri wa Oshigoto desu! 01 00:21:59.987 : :Ending 00:23:29.993 : :Preview ```

File list

  • [neoDESU] Yuri is My Job [Season 1] [BD 1080p x265 HEVC OPUS]
    • Yuri is My Job! - S01E01.mkv (289.9 MiB)
    • Yuri is My Job! - S01E02.mkv (251.0 MiB)
    • Yuri is My Job! - S01E03.mkv (205.8 MiB)
    • Yuri is My Job! - S01E04.mkv (226.2 MiB)
    • Yuri is My Job! - S01E05.mkv (197.5 MiB)
    • Yuri is My Job! - S01E06.mkv (208.6 MiB)
    • Yuri is My Job! - S01E07.mkv (216.9 MiB)
    • Yuri is My Job! - S01E08.mkv (211.1 MiB)
    • Yuri is My Job! - S01E09.mkv (231.1 MiB)
    • Yuri is My Job! - S01E10.mkv (214.9 MiB)
    • Yuri is My Job! - S01E11.mkv (175.0 MiB)
    • Yuri is My Job! - S01E12.mkv (253.0 MiB)