[neoDESU] The Angel Next Door Spoils Me Rotten [Season 1] [BD 1080p x265 HEVC OPUS] Otonari no Tenshi-sama ni Itsunomanika Dame Ningen ni Sareteita Ken

Category:
Date:
2023-08-19 17:06 UTC
Submitter:
Seeders:
26
Information:
Leechers:
4
File size:
1.9 GiB
Completed:
1342
Info hash:
b4a44f10d859aa05606f42ff509007fea5573544
![](https://i.lensdump.com/i/6BKULK.png) *Come hang out in **[Discord](https://discord.gg/47Q7FdB54e)*** #### **[The Angel Next Door Spoils Me Rotten [Season 1]](https://myanimelist.net/anime/50739/Otonari_no_Tenshi-sama_ni_Itsunomanika_Dame_Ningen_ni_Sareteita_Ken)** ▶️ **[Trailer](https://www.youtube.com/watch?v=twfLsWdXcZI)** --- **Notes:** . Resampled script . Restyled script and changed fonts . Created styled OP & ED . Created chapters . Small adjustments on signs here and there --- **Synopsis** Mahiru Shiina is worthy of her nickname "Angel": she is a divine beauty loved by all, and she excels in both academics and athletics. Shiina lives in an entirely different world from Amane Fujimiya, her next-door neighbor. Despite living so close together, they have never spoken once. But their silence is broken when Fujimiya spots Shiina gloomily sitting on a swing amidst a heavy rainstorm and lends her his umbrella. When Fujimiya catches a cold the next day, Shiina wishes to return the favor for the umbrella by nursing him back to health. Believing that this would be their first and last interaction, he silently appreciates her kindness. However, Shiina—who can not help but worry about Fujimiya's lack of tidiness and proper nutrition—begins to cook and clean for him. As the unlikely pair spend time together in Fujimiya's apartment, they explore the true nature of their relationship and the gentle emotions that emerge from it. ![](https://c.l3n.co/i/V3qiDQ.gif) --- **Source** 🗃️ Video and JPN Audio (JPN BDMV): **[ychx]** 🗃️ Subtitles: **[[SubsPlease]](https://nyaa.si/view/1621804)** 💬 *Subtitles Info: [SubsPlease] Base [Me] Edits, see notes* *Thank you all for making this possible <3* --- **Media Info** ``` General Unique ID : 257945306025308178392643777181825080803 (0xC20E7579BCF8996D77DCF36F958F9DE3) Complete name : The Angel Next Door Spoils Me Rotten - S01E01.mkv Format : Matroska Format version : Version 4 File size : 160 MiB Duration : 23 min 41 s Overall bit rate : 947 kb/s Encoded date : UTC 2023-08-19 10:57:45 Writing application : mkvmerge v72.0.0 ('Minuano (Six-eight)') 64-bit Writing library : libebml v1.4.4 + libmatroska v1.7.1 / Lavf60.3.100 Attachments : KGMissKindyChunky.ttf / rabiohead.ttf / times.ttf / CRONOSPRO-BOLD.OTF / CRONOSPRO-BOLDIT.OTF / Edensor-FREE.otf / MADE Tommy Soft Regular PERSONAL USE.otf / Roboto-Medium.ttf / Roboto-MediumItalic.ttf / arial.ttf / arialbd.ttf / comic.ttf / comicbd.ttf / times.ttf / timesbd.ttf / trebuc.ttf / trebucbd.ttf / verdana.ttf / verdanab.ttf / CONSOLA.TTF / CONSOLAB.TTF Video ID : 1 Format : HEVC Format/Info : High Efficiency Video Coding Format profile : Main 10@L4@High Codec ID : V_MPEGH/ISO/HEVC Duration : 23 min 41 s Bit rate : 772 kb/s Width : 1 920 pixels Height : 1 080 pixels Display aspect ratio : 16:9 Frame rate mode : Constant Frame rate : 23.976 (24000/1001) FPS Color space : YUV Chroma subsampling : 4:2:0 Bit depth : 10 bits Bits/(Pixel*Frame) : 0.016 Stream size : 131 MiB (82%) Writing library : x265 3.5+37+12-4e46995bc:[Windows][MSVC 1931][64 bit] 10bit Encoding settings : cpuid=1111039 / frame-threads=5 / numa-pools=32 / wpp / no-pmode / no-pme / no-psnr / no-ssim / log-level=2 / input-csp=1 / input-res=1920x1080 / interlace=0 / total-frames=149 / level-idc=40 / high-tier=1 / uhd-bd=0 / ref=5 / no-allow-non-conformance / no-repeat-headers / annexb / no-aud / no-eob / no-eos / no-hrd / info / hash=0 / no-temporal-layers / open-gop / min-keyint=23 / keyint=250 / gop-lookahead=0 / bframes=16 / b-adapt=2 / b-pyramid / bframe-bias=0 / rc-lookahead=120 / lookahead-slices=4 / scenecut=40 / no-hist-scenecut / radl=0 / no-splice / no-intra-refresh / ctu=64 / min-cu-size=8 / rect / no-amp / max-tu-size=32 / tu-inter-depth=1 / tu-intra-depth=1 / limit-tu=0 / rdoq-level=1 / dynamic-rd=0.00 / no-ssim-rd / signhide / no-tskip / nr-intra=0 / nr-inter=0 / no-constrained-intra / no-strong-intra-smoothing / max-merge=3 / limit-refs=3 / limit-modes / me=3 / subme=3 / merange=57 / temporal-mvp / no-frame-dup / no-hme / weightp / no-weightb / no-analyze-src-pics / deblock=-1:-1 / no-sao / no-sao-non-deblock / rd=4 / selective-sao=0 / no-early-skip / rskip / no-fast-intra / no-tskip-fast / no-cu-lossless / no-b-intra / no-splitrd-skip / rdpenalty=0 / psy-rd=1.50 / psy-rdoq=2.00 / no-rd-refine / no-lossless / cbqpoffs=0 / crqpoffs=0 / rc=crf / crf=21.5 / qcomp=0.60 / qpstep=4 / stats-write=0 / stats-read=0 / vbv-maxrate=30000 / vbv-bufsize=30000 / vbv-init=0.9 / min-vbv-fullness=50.0 / max-vbv-fullness=80.0 / crf-max=0.0 / crf-min=0.0 / ipratio=1.40 / pbratio=1.30 / aq-mode=3 / aq-strength=0.80 / aq-bias-strength=1.00 / cutree / zone-count=0 / no-strict-cbr / qg-size=32 / no-rc-grain / qpmax=69 / qpmin=0 / no-const-vbv / sar=0 / overscan=0 / videoformat=5 / range=0 / colorprim=2 / transfer=2 / colormatrix=2 / chromaloc=0 / display-window=0 / cll=0,0 / min-luma=0 / max-luma=1023 / log2-max-poc-lsb=8 / vui-timing-info / vui-hrd-info / slices=1 / no-opt-qp-pps / no-opt-ref-list-length-pps / no-multi-pass-opt-rps / scenecut-bias=0.05 / hist-threshold=0.03 / no-opt-cu-delta-qp / no-aq-motion / no-hdr10 / no-hdr10-opt / no-dhdr10-opt / no-idr-recovery-sei / analysis-reuse-level=0 / analysis-save-reuse-level=0 / analysis-load-reuse-level=0 / scale-factor=0 / refine-intra=0 / refine-inter=0 / refine-mv=1 / refine-ctu-distortion=0 / no-limit-sao / ctu-info=0 / no-lowpass-dct / refine-analysis-type=0 / copy-pic=1 / max-ausize-factor=1.0 / no-dynamic-refine / no-single-sei / no-hevc-aq / no-svt / no-field / qp-adaptation-range=1.00 / scenecut-aware-qp=0conformance-window-offsets / right=0 / bottom=0 / decoder-max-rate=0 / no-vbv-live-multi-pass Default : Yes Forced : No Audio ID : 2 Format : Opus Codec ID : A_OPUS Duration : 23 min 41 s Bit rate : 126 kb/s Channel(s) : 2 channels Channel layout : L R Sampling rate : 48.0 kHz Frame rate : 50.000 FPS (960 SPF) Bit depth : 32 bits Compression mode : Lossy Stream size : 21.4 MiB (13%) Title : Japanese Writing library : Lavc60.3.100 libopus Language : Japanese Default : Yes Forced : No Text ID : 3 Format : ASS Codec ID : S_TEXT/ASS Codec ID/Info : Advanced Sub Station Alpha Duration : 22 min 41 s Bit rate : 230 b/s Frame rate : 0.386 FPS Count of elements : 525 Compression mode : Lossless Stream size : 38.2 KiB (0%) Title : Dialogue Language : English Default : Yes Forced : No Menu 00:00:00.000 : :Intro 00:01:20.980 : :Episode 00:22:05.010 : :ED 00:23:34.980 : :Preview ```

File list

  • [neoDESU] The Angel Next Door Spoils Me Rotten [Season 1] [BD 1080p x265 HEVC OPUS]
    • The Angel Next Door Spoils Me Rotten - S01E01.mkv (160.5 MiB)
    • The Angel Next Door Spoils Me Rotten - S01E02.mkv (190.7 MiB)
    • The Angel Next Door Spoils Me Rotten - S01E03.mkv (163.7 MiB)
    • The Angel Next Door Spoils Me Rotten - S01E04.mkv (159.6 MiB)
    • The Angel Next Door Spoils Me Rotten - S01E05.mkv (161.0 MiB)
    • The Angel Next Door Spoils Me Rotten - S01E06.mkv (152.9 MiB)
    • The Angel Next Door Spoils Me Rotten - S01E07.mkv (157.2 MiB)
    • The Angel Next Door Spoils Me Rotten - S01E08.mkv (138.7 MiB)
    • The Angel Next Door Spoils Me Rotten - S01E09.mkv (149.9 MiB)
    • The Angel Next Door Spoils Me Rotten - S01E10.mkv (148.0 MiB)
    • The Angel Next Door Spoils Me Rotten - S01E11.mkv (150.5 MiB)
    • The Angel Next Door Spoils Me Rotten - S01E12.mkv (165.4 MiB)
Thanks. Any chance for encoding Toaru Majutsu no Index?

neoborn (uploader)

User
**@asfikjasfbin** I adore the Railgun animes but had to drop index after season 1. Totally not for me with all that religion nonsense >_<