[neoDESU] Uncle from Another World [Season 1] [BD 1080p x265 HEVC AAC] [Dual Audio] Isekai Ojisan

Category:
Date:
2023-08-15 10:32 UTC
Submitter:
Seeders:
22
Information:
Leechers:
0
File size:
5.7 GiB
Completed:
1213
Info hash:
3e99873e3af231aab522e93e1d45d972eda477c7
![](https://i.lensdump.com/i/6BKULK.png) *Come hang out in **[Discord](https://discord.gg/47Q7FdB54e)*** #### **[Uncle from Another World [Season 1]](https://myanimelist.net/anime/49220/Isekai_Ojisan)** โ–ถ๏ธ **[Trailer](https://www.youtube.com/watch?v=UcePA8oFwe8)** --- **Synopsis** After a fatal encounter with a truck, Takafumi Takaoka's uncle, Yousuke "Ojisan" Shibazaki, lies comatose for 17 years. When he finally regains consciousness, Ojisan begins to ramble in a foreign tongue and reveals that he had been transported to a magical world called Gran Bahamal. Takafumi dismisses his uncle's claims as nonsense until an incantation makes a cup of water hover in the air. In a flash of brilliance, the pair creates a YouTube channel to showcase Ojisan's magical abilities. The responsibility now falls on Takafumi's shoulders to acquaint Ojisan with everything that has transpired during his absence, including getting him up to speed with the internet, new technology, and surprisingly, the outcome of the '90s console warโ€”the result of which was especially distressing for a hardcore SEGA fan. With Ojisan's wisdom from his other world experiences, they grow their YouTube channel and tackle online comments and trolls. The journey of this uncle-nephew duo promises to be anything but conventional. ![](https://c.l3n.co/i/VRwykQ.png) --- **Language Options** I included two simple scripts that you can apply to these files to do the following (Windows only): 1. Make [Single Audio] Japanese: Throws out *English audio* and *Signs&Songs subtitles* tracks 2. Make [Single Audio] English: Throws out *Japanese audio* and *Dialogue subtitles* tracks To apply these put all the video files into the *Language Options* folder and run the .bat file. *Don't combine them and only use them once together with the base files.* --- **Source** ๐Ÿ—ƒ๏ธ Video and JPN Audio (JPN BDMV): **[KAKAROT]** ๐Ÿ—ƒ๏ธ ENG Audio and Subtitles: **[[Animorphs]](https://nyaa.si/view/1703224)** ๐Ÿ’ฌ *Subtitles Info: [Animorphs]* *Thank you all for making this possible <3* --- **Media Info** ๐Ÿ†” **[Full Mediainfo incl. Encoder Settings](https://pastebin.com/EKG8Ghvk)** ``` General Unique ID : 145695953650564715795771510491050822793 (0x6D9C051E2423A67654E2AFABD7FE4C89) Complete name : Uncle from Another World - S01E01.mkv Format : Matroska Format version : Version 4 File size : 528 MiB Duration : 23 min 41 s Overall bit rate : 3 117 kb/s Encoded date : UTC 2023-08-15 09:16:56 Writing application : mkvmerge v72.0.0 ('Minuano (Six-eight)') 64-bit Writing library : libebml v1.4.4 + libmatroska v1.7.1 Attachments : almarai.TTF / arial-Bold.ttf / arial.TTF / ccmegacityuptown-Bold.TTF / cursors.TTF / DroidSansFallbackStrp.TTF / Eight-bitMadness.TTF / FixedsysExcelsior3.01.TTF / FuturaNd.TTF / HighwayGothicCondensed.TTF / KozukaMinchoPr6n-h.ttf / lehn044.TTF / LucidaSansUnicode.TTF / PixelArial11.TTF / pixelfj8pt1.TTF / roboto.TTF / superscratchy.TTF / ccarea51industrialsolid.OTF / ccdeadlinedreaded.OTF / ccherosandwichmeat.OTF / GandhiSans-Bold.OTF / GandhiSans-BoldItalic.OTF / RotisSansSerifStd-Bold.OTF / RotisSansSerifStdExtrabold-ExtraBold.OTF / arial.ttf Video ID : 1 Format : HEVC Format/Info : High Efficiency Video Coding Format profile : Main 10@L4@High Codec ID : V_MPEGH/ISO/HEVC Duration : 23 min 41 s Bit rate : 2 743 kb/s Width : 1 920 pixels Height : 1 080 pixels Display aspect ratio : 16:9 Frame rate mode : Constant Frame rate : 23.976 (24000/1001) FPS Color space : YUV Chroma subsampling : 4:2:0 Bit depth : 10 bits Bits/(Pixel*Frame) : 0.055 Stream size : 465 MiB (88%) Writing library : x265 3.5+1-f0c1022b6:[Windows][GCC 9.2.0][64 bit] 10bit Encoding settings : <Check Link Above> Default : Yes Forced : No Color range : Limited Color primaries : BT.709 Transfer characteristics : BT.709 Matrix coefficients : BT.709 Audio #1 ID : 2 Format : AAC LC SBR Format/Info : Advanced Audio Codec Low Complexity with Spectral Band Replication Commercial name : HE-AAC Format settings : Explicit Codec ID : A_AAC-2 Duration : 23 min 39 s Bit rate : 128 kb/s Channel(s) : 2 channels Channel layout : L R Sampling rate : 48.0 kHz Frame rate : 23.438 FPS (2048 SPF) Compression mode : Lossy Stream size : 21.7 MiB (4%) Title : English Language : English Default : Yes Forced : No Audio #2 ID : 3 Format : AAC LC Format/Info : Advanced Audio Codec Low Complexity Codec ID : A_AAC-2 Duration : 23 min 41 s Bit rate : 196 kb/s Channel(s) : 2 channels Channel layout : L R Sampling rate : 48.0 kHz Frame rate : 46.875 FPS (1024 SPF) Compression mode : Lossy Delay relative to video : 2 ms Stream size : 33.2 MiB (6%) Title : Japanese Language : Japanese Default : No Forced : No Text #1 ID : 4 Format : ASS Codec ID : S_TEXT/ASS Codec ID/Info : Advanced Sub Station Alpha Duration : 23 min 5 s Bit rate : 7 640 b/s Frame rate : 5.837 FPS Count of elements : 8085 Compression mode : Lossless Stream size : 1.26 MiB (0%) Title : Signs & Songs Language : English Default : No Forced : Yes Text #2 ID : 5 Format : ASS Codec ID : S_TEXT/ASS Codec ID/Info : Advanced Sub Station Alpha Duration : 23 min 28 s Bit rate : 7 623 b/s Frame rate : 5.978 FPS Count of elements : 8420 Compression mode : Lossless Stream size : 1.28 MiB (0%) Title : Dialogue Language : English Default : Yes Forced : No Menu 00:00:00.000 : :Intro 00:05:38.479 : :OP 00:07:07.949 : :Part A 00:11:20.989 : :Part B ```

File list

  • [neoDESU] Uncle from Another World [Season 1] [BD 1080p x265 HEVC AAC] [Dual Audio]
    • Language Options
      • 1. Make [Single Audio] English.bat (254 Bytes)
      • 2. Make [Single Audio] Japanese.bat (254 Bytes)
      • mkvmerge.exe (9.6 MiB)
      • readme.txt (511 Bytes)
    • Uncle from Another World - S01E01.mkv (528.1 MiB)
    • Uncle from Another World - S01E02.mkv (457.3 MiB)
    • Uncle from Another World - S01E03.mkv (477.0 MiB)
    • Uncle from Another World - S01E04.mkv (414.6 MiB)
    • Uncle from Another World - S01E05.mkv (463.8 MiB)
    • Uncle from Another World - S01E06.mkv (387.4 MiB)
    • Uncle from Another World - S01E07.mkv (424.4 MiB)
    • Uncle from Another World - S01E08.mkv (483.5 MiB)
    • Uncle from Another World - S01E09.mkv (459.0 MiB)
    • Uncle from Another World - S01E10.mkv (428.4 MiB)
    • Uncle from Another World - S01E11.mkv (515.9 MiB)
    • Uncle from Another World - S01E12.mkv (426.7 MiB)
    • Uncle from Another World - S01E13.mkv (404.9 MiB)
SEGA IS TRULY THE BEST GAME COMPANY!