Ghost.In.The.Shell.Stand.Alone.Complex.2nd.GIG.2004.S02.1080p.BluRay.REMUX.UKBD.AVC.DTS-HD.MA.5.1

Category:
Date:
2023-07-29 04:59 UTC
Submitter:
Seeders:
8
File size:
145.5 GiB
Completed:
216
Info hash:
c77aad04a29aa4f20c2083ba17a9652914ae7fa2
![Ghost.In.The.Shell.Stand.Alone.Complex.2nd.GIG](https://external-content.duckduckgo.com/iu/?u=https%3A%2F%2Ftse3.mm.bing.net%2Fth%3Fid%3DOIP.GdOO-QTuaqCoCirkTPugogHaEK%26pid%3DApi&f=1&ipt=db55a82b00791a7872a97380f8046e3547f40ff5d29e3a2aad62117d5f97f0e4&ipo=images "Ghost.In.The.Shell.Stand.Alone.Complex.2nd.GIG") **Ghost.In.The.Shell.Stand.Alone.Complex.2nd.GIG.2004.S02.1080p.BluRay.REMUX.UKBD.AVC.DTS-HD.MA.5.1** A FULL REMUX of Ghost.In.The.Shell.Stand.Alone.Complex.2nd.GIG.2004.S02.1080p. UK BluRay disc with NO modifications to the video content. _____________________________________________ >>ive been informed by another user that this is remuxed from the UK BD, the English dub on the UKBD is from a lossy source and the credits + some signs are hardsubbed in English. If these things matter to you now you know.<< ______________________________________________ MEDIAinfo on a typical file in this archive: General Unique ID : 167965529267937326985887222397737936602 (0x7E5CFBF76D7DE56EE5F4B1C2FE74A6DA) Complete name : Ghost.in.the.Shell.Stand.Alone.Complex.2nd.GIG.2004.S02E01.1080p.BluRay.REMUX.AVC.DTS-HD.MA.5.1-TRiToN.mkv Format : Matroska Format version : Version 4 File size : 5.65 GiB Duration : 25 min 25 s Overall bit rate mode : Variable Overall bit rate : 31.8 Mb/s Movie name : Ghost in the Shell: Stand Alone Complex 2nd GIG (2004) S02E01 Encoded date : UTC 2021-08-26 15:56:03 Writing application : mkvmerge v60.0.0 ('Are We Copies?') 64-bit Writing library : libebml v1.4.2 + libmatroska v1.6.4 Cover : Yes Attachments : cover.jpg IMDB : tt0346314 TMDB : tv/1095 TVDB : 73749 Video ID : 1 ID in the original source medium : 4113 (0x1011) Format : AVC Format/Info : Advanced Video Codec Format profile : High@L4.1 Format settings : CABAC / 3 Ref Frames Format settings, CABAC : Yes Format settings, Reference frames : 3 frames Codec ID : V_MPEG4/ISO/AVC Duration : 25 min 25 s Bit rate mode : Variable Bit rate : 23.9 Mb/s Maximum bit rate : 32.0 Mb/s Width : 1 920 pixels Height : 1 080 pixels Display aspect ratio : 16:9 Frame rate mode : Constant Frame rate : 23.976 (24000/1001) FPS Standard : NTSC Color space : YUV Chroma subsampling : 4:2:0 Bit depth : 8 bits Scan type : Progressive Bits/(Pixel*Frame) : 0.481 Stream size : 4.25 GiB (75%) Title : MPEG-4 AVC Video / 23939 kbps / 1080p / 23.976 fps / 16:9 / High Profile 4.1 Language : zxx Default : Yes Forced : No Color range : Limited Color primaries : BT.709 Transfer characteristics : BT.709 Matrix coefficients : BT.709 Original source medium : Blu-ray Audio #1 ID : 2 ID in the original source medium : 4352 (0x1100) Format : DTS XLL Format/Info : Digital Theater Systems Commercial name : DTS-HD Master Audio Codec ID : A_DTS Duration : 25 min 25 s Bit rate mode : Variable Bit rate : 3 815 kb/s Channel(s) : 6 channels Channel layout : C L R Ls Rs LFE Sampling rate : 48.0 kHz Frame rate : 93.750 FPS (512 SPF) Bit depth : 24 bits Compression mode : Lossless Stream size : 694 MiB (12%) Title : DTS-HD Master Audio / 5.1 / 48 kHz / 3815 kbps / 24-bit Language : English Default : Yes Forced : No Original source medium : Blu-ray Audio #2 ID : 3 ID in the original source medium : 4353 (0x1101) Format : DTS XLL Format/Info : Digital Theater Systems Commercial name : DTS-HD Master Audio Codec ID : A_DTS Duration : 25 min 25 s Bit rate mode : Variable Bit rate : 4 020 kb/s Channel(s) : 6 channels Channel layout : C L R Ls Rs LFE Sampling rate : 48.0 kHz Frame rate : 93.750 FPS (512 SPF) Bit depth : 24 bits Compression mode : Lossless Stream size : 731 MiB (13%) Title : DTS-HD Master Audio / 5.1 / 48 kHz / 4020 kbps / 24-bit Language : Japanese Default : No Forced : No Original source medium : Blu-ray Text #1 ID : 4 ID in the original source medium : 4609 (0x1201) Format : PGS Codec ID : S_HDMV/PGS Codec ID/Info : Picture based subtitle format used on BDs/HD-DVDs Duration : 24 min 29 s Bit rate : 1 954 b/s Count of elements : 36 Stream size : 351 KiB (0%) Title : Signs & Songs Language : English Default : Yes Forced : Yes Original source medium : Blu-ray Text #2 ID : 5 ID in the original source medium : 4608 (0x1200) Format : PGS Codec ID : S_HDMV/PGS Codec ID/Info : Picture based subtitle format used on BDs/HD-DVDs Duration : 25 min 7 s Bit rate : 44.7 kb/s Count of elements : 570 Stream size : 8.03 MiB (0%) Language : English Default : No Forced : No Original source medium : Blu-ray Menu 00:00:00.000 : Chapter 01 00:01:30.423 : Chapter 02 00:12:28.497 : Chapter 03 00:23:01.546 : Chapter 04 00:24:31.595 : Chapter 05 _______________________________________________ >>>If you enjoy my releases please help seed as much as possible. I only have 100Mbit seed ability so any help you can give is GREATLY appreciated by me as well as others who get to enjoy my torrents thanks to your help. YOUR COMMENTS ARE ALWAYS WELCOME. Cheers>>

File list

  • Ghost.In.The.Shell.Stand.Alone.Complex.2nd.GIG.2004.S02.1080p.BluRay.REMUX.AVC.DTS-HD.MA.5.1-TRiToN
    • Ghost.in.the.Shell.Stand.Alone.Complex.2nd.GIG.2004.S02E01.1080p.BluRay.REMUX.AVC.DTS-HD.MA.5.1-TRiToN.mkv (5.7 GiB)
    • Ghost.in.the.Shell.Stand.Alone.Complex.2nd.GIG.2004.S02E02.1080p.BluRay.REMUX.AVC.DTS-HD.MA.5.1-TRiToN.mkv (5.6 GiB)
    • Ghost.in.the.Shell.Stand.Alone.Complex.2nd.GIG.2004.S02E03.1080p.BluRay.REMUX.AVC.DTS-HD.MA.5.1-TRiToN.mkv (5.6 GiB)
    • Ghost.in.the.Shell.Stand.Alone.Complex.2nd.GIG.2004.S02E04.1080p.BluRay.REMUX.AVC.DTS-HD.MA.5.1-TRiToN.mkv (5.9 GiB)
    • Ghost.in.the.Shell.Stand.Alone.Complex.2nd.GIG.2004.S02E05.1080p.BluRay.REMUX.AVC.DTS-HD.MA.5.1-TRiToN.mkv (5.7 GiB)
    • Ghost.in.the.Shell.Stand.Alone.Complex.2nd.GIG.2004.S02E06.1080p.BluRay.REMUX.AVC.DTS-HD.MA.5.1-TRiToN.mkv (5.6 GiB)
    • Ghost.in.the.Shell.Stand.Alone.Complex.2nd.GIG.2004.S02E07.1080p.BluRay.REMUX.AVC.DTS-HD.MA.5.1-TRiToN.mkv (5.7 GiB)
    • Ghost.in.the.Shell.Stand.Alone.Complex.2nd.GIG.2004.S02E08.1080p.BluRay.REMUX.AVC.DTS-HD.MA.5.1-TRiToN.mkv (5.7 GiB)
    • Ghost.in.the.Shell.Stand.Alone.Complex.2nd.GIG.2004.S02E09.1080p.BluRay.REMUX.AVC.DTS-HD.MA.5.1-TRiToN.mkv (5.6 GiB)
    • Ghost.in.the.Shell.Stand.Alone.Complex.2nd.GIG.2004.S02E10.1080p.BluRay.REMUX.AVC.DTS-HD.MA.5.1-TRiToN.mkv (5.5 GiB)
    • Ghost.in.the.Shell.Stand.Alone.Complex.2nd.GIG.2004.S02E11.1080p.BluRay.REMUX.AVC.DTS-HD.MA.5.1-TRiToN.mkv (5.5 GiB)
    • Ghost.in.the.Shell.Stand.Alone.Complex.2nd.GIG.2004.S02E12.1080p.BluRay.REMUX.AVC.DTS-HD.MA.5.1-TRiToN.mkv (5.7 GiB)
    • Ghost.in.the.Shell.Stand.Alone.Complex.2nd.GIG.2004.S02E13.1080p.BluRay.REMUX.AVC.DTS-HD.MA.5.1-TRiToN.mkv (5.6 GiB)
    • Ghost.in.the.Shell.Stand.Alone.Complex.2nd.GIG.2004.S02E14.1080p.BluRay.REMUX.AVC.DTS-HD.MA.5.1-TRiToN.mkv (5.8 GiB)
    • Ghost.in.the.Shell.Stand.Alone.Complex.2nd.GIG.2004.S02E15.1080p.BluRay.REMUX.AVC.DTS-HD.MA.5.1-TRiToN.mkv (5.6 GiB)
    • Ghost.in.the.Shell.Stand.Alone.Complex.2nd.GIG.2004.S02E16.1080p.BluRay.REMUX.AVC.DTS-HD.MA.5.1-TRiToN.mkv (5.5 GiB)
    • Ghost.in.the.Shell.Stand.Alone.Complex.2nd.GIG.2004.S02E17.1080p.BluRay.REMUX.AVC.DTS-HD.MA.5.1-TRiToN.mkv (5.7 GiB)
    • Ghost.in.the.Shell.Stand.Alone.Complex.2nd.GIG.2004.S02E18.1080p.BluRay.REMUX.AVC.DTS-HD.MA.5.1-TRiToN.mkv (5.7 GiB)
    • Ghost.in.the.Shell.Stand.Alone.Complex.2nd.GIG.2004.S02E19.1080p.BluRay.REMUX.AVC.DTS-HD.MA.5.1-TRiToN.mkv (5.3 GiB)
    • Ghost.in.the.Shell.Stand.Alone.Complex.2nd.GIG.2004.S02E20.1080p.BluRay.REMUX.AVC.DTS-HD.MA.5.1-TRiToN.mkv (5.4 GiB)
    • Ghost.in.the.Shell.Stand.Alone.Complex.2nd.GIG.2004.S02E21.1080p.BluRay.REMUX.AVC.DTS-HD.MA.5.1-TRiToN.mkv (5.3 GiB)
    • Ghost.in.the.Shell.Stand.Alone.Complex.2nd.GIG.2004.S02E22.1080p.BluRay.REMUX.AVC.DTS-HD.MA.5.1-TRiToN.mkv (5.3 GiB)
    • Ghost.in.the.Shell.Stand.Alone.Complex.2nd.GIG.2004.S02E23.1080p.BluRay.REMUX.AVC.DTS-HD.MA.5.1-TRiToN.mkv (5.5 GiB)
    • Ghost.in.the.Shell.Stand.Alone.Complex.2nd.GIG.2004.S02E24.1080p.BluRay.REMUX.AVC.DTS-HD.MA.5.1-TRiToN.mkv (5.7 GiB)
    • Ghost.in.the.Shell.Stand.Alone.Complex.2nd.GIG.2004.S02E25.1080p.BluRay.REMUX.AVC.DTS-HD.MA.5.1-TRiToN.mkv (5.6 GiB)
    • Ghost.in.the.Shell.Stand.Alone.Complex.2nd.GIG.2004.S02E26.1080p.BluRay.REMUX.AVC.DTS-HD.MA.5.1-TRiToN.mkv (5.6 GiB)
If it's not rude to ask would you do Garo The Animation + movie USBD in the future? or Castlevania all 4 seasons from the blu ray

Bullitbaby (uploader)

BANNED User
i dont have garo BD but i will look into CASTLEVANIA for you. it kinda interests me as well as a nice collectors item. keep an eye out for it,
@Bullitbaby Thank you so much! can't wait and as for Garo The Animation I do recommend, it's a pretty good underrated series imo but I do understand that it may not be for everyone.

Bullitbaby (uploader)

BANNED User
@Marx1234. Castlevania will be up within next 24 hours FYI. :)

Bullitbaby (uploader)

BANNED User
@Marx1234 Castlevania is up https://nyaa.si/view/1701258
I saw the Castlevania upload... And then few minutes later it disappeared. [Has it been taken down?](https://nyaa.si/view/1701258)

Bullitbaby (uploader)

BANNED User
Yes, i believe it violates this rule which i wasnt aware of before: in the rules it states Content restrictions: This site is for content that originates from and/or is specific to China, Japan, and/or Korea. Other content is not allowed without exceptions and will be removed. The above content restrictions for anime are defined by the content having an AniDB listing. Castlevania doesnt qualify which i didnt know. im not sure if its against rules but if you have an email I can send you the torrent file.

Bullitbaby (uploader)

BANNED User
two versions of castlevania are now up on animetosho. i managed to get them up there since they are banned by rules at NYAA. https://animetosho.org/storage/torrent/1ab0ef919d3f0805bee05448e74f95f5c26400d0/Castlevania.S01-04.1080p.AC351%28Eng.Spa.Tur.Pol.Ita.Por.Fre.Jap.Ger%29.DL.NF.Subs%2835.Lang%29.torrent https://animetosho.org/storage/torrent/47be884ed718fe4020b5c3203147310ab9d2c440/Castlevania.Collector.Pack.2017-2021.S01-S04.1080p.torrent they are and will remain seeded from my seedbox forever and are quite popular with 200 DLs so far.