Ghost.In.The.Shell.Stand.Alone.Complex.2002.S01.1080p.BluRay.REMUX.UKBD.AVC.DTS-HD.MA.5.1

Category:
Date:
2023-07-29 04:59 UTC
Submitter:
Seeders:
15
File size:
142.0 GiB
Completed:
374
Info hash:
1dc623e03369d25de83c31f39eb08d5b9331a0ca
![Ghost.In.The.Shell.Stand.Alone.Complex.2002.S01](https://external-content.duckduckgo.com/iu/?u=https%3A%2F%2Ftse3.explicit.bing.net%2Fth%3Fid%3DOIP.fibcTvisbqF1yi9vibvlbQHaEK%26pid%3DApi&f=1&ipt=07c7d75dd3df7283de328cd23662f050082e26db24c5038550757021b74f1f07&ipo=images "Ghost.In.The.Shell.Stand.Alone.Complex.2002.S01") **Ghost.In.The.Shell.Stand.Alone.Complex.2002.S01.1080p.BluRay.REMUX.UKBD.AVC.DTS-HD.MA.5.1** A FULL REMUX of Ghost.In.The.Shell.Stand.Alone.Complex.2002.S01.1080p UK BluRay disc with NO modifications to the video content. _____________________________________________ >>ive been informed by another user that this is remuxed from the UK BD, the English dub on the UKBD is from a lossy source and the credits + some signs are hardsubbed in English. If these things matter to you now you know.<< ______________________________________________ MEDIAinfo on a typical file in this archive: General Unique ID : 335237877129171350867153824365539531609 (0xFC34777376BC95B430A5D08303349B59) Complete name : Ghost.In.The.Shell.Stand.Alone.Complex.2002.S01E01.1080p.BluRay.REMUX.AVC.DTS-HD.MA.5.1-TRiToN.mkv Format : Matroska Format version : Version 4 File size : 5.58 GiB Duration : 26 min 16 s Overall bit rate mode : Variable Overall bit rate : 30.4 Mb/s Movie name : Ghost in the Shell: Stand Alone Complex (2002) S01E01 Encoded date : UTC 2021-08-23 15:25:22 Writing application : mkvmerge v60.0.0 ('Are We Copies?') 64-bit Writing library : libebml v1.4.2 + libmatroska v1.6.4 Cover : Yes Attachments : cover.jpg IMDB : tt0346314 TMDB : tv/1095 TVDB : 73749 Video ID : 1 ID in the original source medium : 4113 (0x1011) Format : AVC Format/Info : Advanced Video Codec Format profile : High@L4.1 Format settings : CABAC / 3 Ref Frames Format settings, CABAC : Yes Format settings, Reference frames : 3 frames Codec ID : V_MPEG4/ISO/AVC Duration : 26 min 16 s Bit rate mode : Variable Bit rate : 24.0 Mb/s Maximum bit rate : 32.0 Mb/s Width : 1 920 pixels Height : 1 080 pixels Display aspect ratio : 16:9 Frame rate mode : Constant Frame rate : 23.976 (24000/1001) FPS Standard : NTSC Color space : YUV Chroma subsampling : 4:2:0 Bit depth : 8 bits Scan type : Progressive Bits/(Pixel*Frame) : 0.483 Stream size : 4.40 GiB (79%) Title : MPEG-4 AVC Video / 24000 kbps / 1080p / 23.976 fps / 16:9 / High Profile 4.1 Language : zxx Default : Yes Forced : No Color range : Limited Color primaries : BT.709 Transfer characteristics : BT.709 Matrix coefficients : BT.709 Original source medium : Blu-ray Audio #1 ID : 2 ID in the original source medium : 4352 (0x1100) Format : DTS XLL Format/Info : Digital Theater Systems Commercial name : DTS-HD Master Audio Codec ID : A_DTS Duration : 26 min 16 s Bit rate mode : Variable Bit rate : 3 883 kb/s Channel(s) : 6 channels Channel layout : C L R Ls Rs LFE Sampling rate : 48.0 kHz Frame rate : 93.750 FPS (512 SPF) Bit depth : 24 bits Compression mode : Lossless Stream size : 730 MiB (13%) Title : DTS-HD Master Audio / 5.1 / 48 kHz / 3883 kbps / 24-bit Language : English Default : Yes Forced : No Original source medium : Blu-ray Audio #2 ID : 3 ID in the original source medium : 4353 (0x1101) Format : DTS XLL Format/Info : Digital Theater Systems Commercial name : DTS-HD Master Audio Codec ID : A_DTS Duration : 26 min 16 s Bit rate mode : Variable Bit rate : 2 490 kb/s Channel(s) : 6 channels Channel layout : C L R Ls Rs LFE Sampling rate : 48.0 kHz Frame rate : 93.750 FPS (512 SPF) Bit depth : 24 bits Compression mode : Lossless Stream size : 468 MiB (8%) Title : DTS-HD Master Audio / 5.1 / 48 kHz / 2490 kbps / 24-bit Language : Japanese Default : No Forced : No Original source medium : Blu-ray Text #1 ID : 4 ID in the original source medium : 4609 (0x1201) Format : PGS Codec ID : S_HDMV/PGS Codec ID/Info : Picture based subtitle format used on BDs/HD-DVDs Duration : 24 min 33 s Bit rate : 1 912 b/s Count of elements : 46 Stream size : 344 KiB (0%) Title : Signs & Songs Language : English Default : Yes Forced : Yes Original source medium : Blu-ray Text #2 ID : 5 ID in the original source medium : 4608 (0x1200) Format : PGS Codec ID : S_HDMV/PGS Codec ID/Info : Picture based subtitle format used on BDs/HD-DVDs Duration : 26 min 4 s Bit rate : 36.7 kb/s Count of elements : 630 Stream size : 6.85 MiB (0%) Language : English Default : No Forced : No Original source medium : Blu-ray Menu 00:00:00.000 : Chapter 01 00:01:30.090 : Chapter 02 00:10:03.069 : Chapter 03 00:23:02.131 : Chapter 04 _______________________________________________ >>>If you enjoy my releases please help seed as much as possible. I only have 100Mbit seed ability so any help you can give is GREATLY appreciated by me as well as others who get to enjoy my torrents thanks to your help. YOUR COMMENTS ARE ALWAYS WELCOME. Cheers>>

File list

  • Ghost.In.The.Shell.Stand.Alone.Complex.2002.S01.1080p.BluRay.REMUX.AVC.DTS-HD.MA.5.1-TRiToN
    • Ghost.In.The.Shell.Stand.Alone.Complex.2002.S01E01.1080p.BluRay.REMUX.AVC.DTS-HD.MA.5.1-TRiToN.mkv (5.6 GiB)
    • Ghost.In.The.Shell.Stand.Alone.Complex.2002.S01E02.1080p.BluRay.REMUX.AVC.DTS-HD.MA.5.1-TRiToN.mkv (5.6 GiB)
    • Ghost.In.The.Shell.Stand.Alone.Complex.2002.S01E03.1080p.BluRay.REMUX.AVC.DTS-HD.MA.5.1-TRiToN.mkv (6.0 GiB)
    • Ghost.In.The.Shell.Stand.Alone.Complex.2002.S01E04.1080p.BluRay.REMUX.AVC.DTS-HD.MA.5.1-TRiToN.mkv (5.6 GiB)
    • Ghost.In.The.Shell.Stand.Alone.Complex.2002.S01E05.1080p.BluRay.REMUX.AVC.DTS-HD.MA.5.1-TRiToN.mkv (5.5 GiB)
    • Ghost.In.The.Shell.Stand.Alone.Complex.2002.S01E06.1080p.BluRay.REMUX.AVC.DTS-HD.MA.5.1-TRiToN.mkv (5.5 GiB)
    • Ghost.In.The.Shell.Stand.Alone.Complex.2002.S01E07.1080p.BluRay.REMUX.AVC.DTS-HD.MA.5.1-TRiToN.mkv (5.4 GiB)
    • Ghost.In.The.Shell.Stand.Alone.Complex.2002.S01E08.1080p.BluRay.REMUX.AVC.DTS-HD.MA.5.1-TRiToN.mkv (5.4 GiB)
    • Ghost.In.The.Shell.Stand.Alone.Complex.2002.S01E09.1080p.BluRay.REMUX.AVC.DTS-HD.MA.5.1-TRiToN.mkv (5.6 GiB)
    • Ghost.In.The.Shell.Stand.Alone.Complex.2002.S01E10.1080p.BluRay.REMUX.AVC.DTS-HD.MA.5.1-TRiToN.mkv (5.3 GiB)
    • Ghost.In.The.Shell.Stand.Alone.Complex.2002.S01E11.1080p.BluRay.REMUX.AVC.DTS-HD.MA.5.1-TRiToN.mkv (5.5 GiB)
    • Ghost.In.The.Shell.Stand.Alone.Complex.2002.S01E12.1080p.BluRay.REMUX.AVC.DTS-HD.MA.5.1-TRiToN.mkv (5.3 GiB)
    • Ghost.In.The.Shell.Stand.Alone.Complex.2002.S01E13.1080p.BluRay.REMUX.AVC.DTS-HD.MA.5.1-TRiToN.mkv (5.5 GiB)
    • Ghost.In.The.Shell.Stand.Alone.Complex.2002.S01E14.1080p.BluRay.REMUX.AVC.DTS-HD.MA.5.1-TRiToN.mkv (5.4 GiB)
    • Ghost.In.The.Shell.Stand.Alone.Complex.2002.S01E15.1080p.BluRay.REMUX.AVC.DTS-HD.MA.5.1-TRiToN.mkv (5.8 GiB)
    • Ghost.In.The.Shell.Stand.Alone.Complex.2002.S01E16.1080p.BluRay.REMUX.AVC.DTS-HD.MA.5.1-TRiToN.mkv (5.2 GiB)
    • Ghost.In.The.Shell.Stand.Alone.Complex.2002.S01E17.1080p.BluRay.REMUX.AVC.DTS-HD.MA.5.1-TRiToN.mkv (5.3 GiB)
    • Ghost.In.The.Shell.Stand.Alone.Complex.2002.S01E18.1080p.BluRay.REMUX.AVC.DTS-HD.MA.5.1-TRiToN.mkv (5.5 GiB)
    • Ghost.In.The.Shell.Stand.Alone.Complex.2002.S01E19.1080p.BluRay.REMUX.AVC.DTS-HD.MA.5.1-TRiToN.mkv (5.1 GiB)
    • Ghost.In.The.Shell.Stand.Alone.Complex.2002.S01E20.1080p.BluRay.REMUX.AVC.DTS-HD.MA.5.1-TRiToN.mkv (5.4 GiB)
    • Ghost.In.The.Shell.Stand.Alone.Complex.2002.S01E21.1080p.BluRay.REMUX.AVC.DTS-HD.MA.5.1-TRiToN.mkv (5.4 GiB)
    • Ghost.In.The.Shell.Stand.Alone.Complex.2002.S01E22.1080p.BluRay.REMUX.AVC.DTS-HD.MA.5.1-TRiToN.mkv (5.4 GiB)
    • Ghost.In.The.Shell.Stand.Alone.Complex.2002.S01E23.1080p.BluRay.REMUX.AVC.DTS-HD.MA.5.1-TRiToN.mkv (5.4 GiB)
    • Ghost.In.The.Shell.Stand.Alone.Complex.2002.S01E24.1080p.BluRay.REMUX.AVC.DTS-HD.MA.5.1-TRiToN.mkv (5.4 GiB)
    • Ghost.In.The.Shell.Stand.Alone.Complex.2002.S01E25.1080p.BluRay.REMUX.AVC.DTS-HD.MA.5.1-TRiToN.mkv (5.5 GiB)
    • Ghost.In.The.Shell.Stand.Alone.Complex.2002.S01E26.1080p.BluRay.REMUX.AVC.DTS-HD.MA.5.1-TRiToN.mkv (5.4 GiB)
> TRiToN nice meme, both this and the season 2 are remuxed from the UK BD, the English dub on the UKBD is from a lossy source and the credits + some signs are hardsubbed in English
I trust what RaptoR has to say about TRiToN

Bullitbaby (uploader)

BANNED User
@RaptoR I dont personally know whats bad about remuxing fomm the UKBD. Ive never personally listened in English so lossy or not means nothing to me and who reads the credits? If these are that BAD I guess just dont DL it. 56 other people dont care either cuzz they are leeching as I type this. Thanks for these insights though, its good to know these things I suppose. Ill add in the description what youve said here so everyone is informed, and Ive changed the name by adding UKBD. Now everyone knows these details. cheers.
least toxic nyaa'er above me

Bullitbaby (uploader)

BANNED User
THANK YOU SEEDERS. this archive has only been up for 10 hours and we already have 30 seeders. with everyone help this upload is moving at light speed. EXCELLENT!
you know seeders tend to decrease over time not increase

Bullitbaby (uploader)

BANNED User
i know thats always the case but in the meantime - this archive has done amazingly well.