[neoDESU] More Than a Married Couple, but Not Lovers [Season 1] [BD 1080p x265 HEVC AAC] [Dual Audio] Fuufu Ijou, Koibito Miman

Category:
Date:
2023-07-17 12:29 UTC
Submitter:
Seeders:
17
Information:
Leechers:
0
File size:
2.2 GiB
Completed:
1212
Info hash:
52534cfe38b1ed448c4095124d84e30762fce6c7
![](https://i.lensdump.com/i/6BKULK.png) *Come hang out in **[Discord](https://discord.gg/47Q7FdB54e)*** #### **[More than a Married Couple, but Not Lovers [Season 1]](https://myanimelist.net/anime/50425/Fuufu_Ijou_Koibito_Miman)** ▶️ **[Trailer](https://www.youtube.com/watch?v=z3a-kwf9178)** --- **Notes:** . Resampled script . Restyled script and changed fonts . Inserted OP & ED into earlier episodes . Slight visual adjustments on OP & ED . Created chapters --- **Synopsis** Third-year high school student Jirou Yakuin is in love with his childhood friend and classmate, Shiori Sakurazaka. Thus, he hopes to be paired with her for the "marriage practical": their school's practice of randomly selecting boy-girl pairs to live as pretend married couples while monitoring and rating them on how close they have gotten. Meanwhile, the lively Akari Watanabe wants to be assigned to her crush, the popular and good-looking Minami Tenjin. Much to their dismay, Jirou and Akari find out that not only have they been paired together, but so have Shiori and Minami! Determined to be with their crushes, Jirou and Akari strive to earn as many points as possible, as the top 10 pairs earn the right to switch their partners—so long as both couples agree. ![](https://i1.lensdump.com/i/JNjkiZ.png) --- **Language Options** I included two simple scripts that you can apply to these files to do the following (Windows only): 1. Make [Single Audio] Japanese: Throws out *English audio* and *Signs&Songs subtitles* tracks 2. Make [Single Audio] English: Throws out *Japanese audio* and *Dialogue subtitles* tracks To apply these put all the video files into the *Language Options* folder and run the .bat file. *Don't combine them and only use them once together with the base files.* --- **Source** 🗃️ Video and JPN Audio (JPN BDMV): **[[KoushinRip]](https://nyaa.si/view/1640333)** 🗃️ ENG Audio (WEB): **[[Yameii]](https://nyaa.si/view/1594316)** 🗃️ Subtitles: **[[Anime Chap]](https://nyaa.si/view/1588433)** 💬 *Subtitles Info: [Anime Chap] Base [Me] Edits, see notes* *Thank you all for making this possible <3* --- **Media Info** 🆔 **[Full Mediainfo incl. Encoder Settings](https://pastebin.com/VLA4CvrG)** ``` General Unique ID : 41031764644192833857997376214640162680 (0x1EDE6E300023178A477246F42970F778) Complete name : More Than a Married Couple, but Not Lovers - S01E01.mkv Format : Matroska Format version : Version 4 File size : 212 MiB Duration : 24 min 10 s Overall bit rate : 1 229 kb/s Encoded date : UTC 2023-07-17 10:09:31 Writing application : mkvmerge v72.0.0 ('Minuano (Six-eight)') 64-bit Writing library : libebml v1.4.4 + libmatroska v1.7.1 Attachments : arial.ttf / arialbd.ttf / comic.ttf / comicbd.ttf / comici.ttf / CONSOLA.TTF / CONSOLAB.TTF / courbd.ttf / georgiab.ttf / impact.ttf / Quick Note.ttf / Roboto-Medium.ttf / Roboto-MediumItalic.ttf / times.ttf / timesbd.ttf / timesbi.ttf / trebuc.ttf / trebucbd.ttf / verdana.ttf / verdanab.ttf / CRONOSPRO-BOLD.OTF / CRONOSPRO-BOLDIT.OTF / octarine.bold.otf / TheLima-K7GXZ.otf / Typography.otf Video ID : 1 Format : HEVC Format/Info : High Efficiency Video Coding Format profile : Main 10@L4@High Codec ID : V_MPEGH/ISO/HEVC Duration : 24 min 10 s Bit rate : 918 kb/s Width : 1 920 pixels Height : 1 080 pixels Display aspect ratio : 16:9 Frame rate mode : Constant Frame rate : 23.976 (24000/1001) FPS Color space : YUV Chroma subsampling : 4:2:0 (Type 0) Bit depth : 10 bits Bits/(Pixel*Frame) : 0.018 Stream size : 159 MiB (75%) Writing library : x265 3.5+1-f0c1022b6:[Windows][GCC 10.2.0][64 bit] 10bit Encoding settings : <Check Link Above> Default : Yes Forced : No Color range : Limited Color primaries : BT.709 Transfer characteristics : BT.709 Matrix coefficients : BT.709 Audio #1 ID : 2 Format : AAC LC Format/Info : Advanced Audio Codec Low Complexity Codec ID : A_AAC-2 Duration : 24 min 10 s Bit rate : 128 kb/s Channel(s) : 2 channels Channel layout : L R Sampling rate : 44.1 kHz Frame rate : 43.066 FPS (1024 SPF) Compression mode : Lossy Stream size : 22.1 MiB (10%) Title : English Language : English Default : Yes Forced : No Audio #2 ID : 3 Format : AAC LC Format/Info : Advanced Audio Codec Low Complexity Codec ID : A_AAC-2 Duration : 24 min 10 s Bit rate : 123 kb/s Channel(s) : 2 channels Channel layout : L R Sampling rate : 48.0 kHz Frame rate : 46.875 FPS (1024 SPF) Compression mode : Lossy Delay relative to video : 10 ms Stream size : 21.3 MiB (10%) Title : Japanese Language : Japanese Default : No Forced : No Text #1 ID : 4 Format : ASS Codec ID : S_TEXT/ASS Codec ID/Info : Advanced Sub Station Alpha Duration : 24 min 3 s Bit rate : 131 b/s Frame rate : 0.127 FPS Count of elements : 184 Compression mode : Lossless Stream size : 23.1 KiB (0%) Title : Signs & Songs Language : English Default : No Forced : Yes Text #2 ID : 5 Format : ASS Codec ID : S_TEXT/ASS Codec ID/Info : Advanced Sub Station Alpha Duration : 24 min 3 s Bit rate : 280 b/s Frame rate : 0.439 FPS Count of elements : 633 Compression mode : Lossless Stream size : 49.4 KiB (0%) Title : Dialogue Language : English Default : Yes Forced : No Menu 00:00:00.000 : :Intro 00:01:22.020 : :Episode 00:22:19.990 : :ED 00:23:50.030 : :Preview ```

File list

  • [neoDESU] More Than a Married Couple, but Not Lovers [Season 1] [BD 1080p x265 HEVC AAC] [Dual Audio]
    • Language Options
      • 1. Make [Single Audio] English.bat (254 Bytes)
      • 2. Make [Single Audio] Japanese.bat (254 Bytes)
      • mkvmerge.exe (9.6 MiB)
      • readme.txt (511 Bytes)
    • More Than a Married Couple, but Not Lovers - S01E01.mkv (212.4 MiB)
    • More Than a Married Couple, but Not Lovers - S01E02.mkv (190.2 MiB)
    • More Than a Married Couple, but Not Lovers - S01E03.mkv (173.8 MiB)
    • More Than a Married Couple, but Not Lovers - S01E04.mkv (202.4 MiB)
    • More Than a Married Couple, but Not Lovers - S01E05.mkv (178.1 MiB)
    • More Than a Married Couple, but Not Lovers - S01E06.mkv (158.6 MiB)
    • More Than a Married Couple, but Not Lovers - S01E07.mkv (250.4 MiB)
    • More Than a Married Couple, but Not Lovers - S01E08.mkv (175.5 MiB)
    • More Than a Married Couple, but Not Lovers - S01E09.mkv (175.7 MiB)
    • More Than a Married Couple, but Not Lovers - S01E10.mkv (157.3 MiB)
    • More Than a Married Couple, but Not Lovers - S01E11.mkv (180.4 MiB)
    • More Than a Married Couple, but Not Lovers - S01E12.mkv (187.8 MiB)