[neoDESU] Deaimon - Recipe for Happiness [Season 1] [BD 1080p x265 HEVC AAC]

Category:
Date:
2023-07-17 12:28 UTC
Submitter:
Seeders:
17
Information:
Leechers:
0
File size:
3.4 GiB
Completed:
584
Info hash:
88ae75682ddb8c27cbf2504dc72772d079a46e67
![](https://i.lensdump.com/i/6BKULK.png) *Come hang out in **[Discord](https://discord.gg/47Q7FdB54e)*** #### **[Deaimon: Recipe for Happiness [Season 1]](https://myanimelist.net/anime/48779/Deaimon)** ▶️ **[Trailer](https://www.youtube.com/watch?v=68Nf5rOEEJ0)** --- **Synopsis** Ten years have passed since Nagomu Irino left his home to pursue his dream that ultimately failed. He finally decides to return after hearing that his father—owner of the Kyoto sweets store Ryokushou—has been hospitalized. Worrying that no one would inherit the shop if his father passes away, Nagomu prepares himself to embrace his family's legacy and the art of making sweets⁠. Unsurprisingly, Nagomu discovers that his father has already chosen a different successor—a 10-year-old girl named Itsuka Yukihira, who was abandoned at Ryokushou by her father for reasons unknown. While she has since become a part of the family and is now the shop's poster girl, Itsuka still longs to see her father and follows all possible clues that may lead her to him. Sympathizing with Itsuka's situation, Nagomu's mother asks Nagomu to act as Itsuka's father, hoping that Itsuka will open up to him and relieve her pain, even if just a little. Starting on bad terms, Itsuka and Nagomu gradually learn more about each other, realizing that they are more similar than they had thought. Connected by their mutual love for both Ryokushou and its confections, their relationship as child and father figure begins to make lives around them a little bit sweeter. ![](https://i3.lensdump.com/i/JN0E13.png) --- **Source** 🗃️ Video and JPN Audio (JPN BDMV): **[[村上文緒]](https://nyaa.si/view/1578603)** 🗃️ Subtitles: **[[Cyan]](https://nyaa.si/view/1561455)** 💬 *Subtitles Info: [Cyan] *Thank you all for making this possible <3* --- **Media Info** ``` General Unique ID : 331973884978614894543459431656195158985 (0xF9BFD8369F9B05675E4D40ED2FF0F3C9) Complete name : Deaimon - S01E01.mkv Format : Matroska Format version : Version 4 File size : 362 MiB Duration : 24 min 12 s Overall bit rate : 2 092 kb/s Movie name : Deaimon - S01E01 Encoded date : UTC 2023-07-17 12:03:33 Writing application : mkvmerge v72.0.0 ('Minuano (Six-eight)') 64-bit Writing library : libebml v1.4.4 + libmatroska v1.7.1 / Lavf58.76.100 Attachments : Anko-Semibold.ttf / Brushield.ttf / Brushingtons.ttf / dupree.ttf / FARACOHAND.TTF / FONTIN_SANS.OTF / FONTIN_SANS_BI.OTF / FOT-SLUMPSTD-DB-EN.ttf / GEMELLI.TTF / IMFeENrm29P.ttf / JFRocSol.TTF / KGNOREGRETSSOLID.TTF Video ID : 1 Format : HEVC Format/Info : High Efficiency Video Coding Format profile : Main 10@L4@High Codec ID : V_MPEGH/ISO/HEVC Duration : 24 min 12 s Bit rate : 1 297 kb/s Width : 1 920 pixels Height : 1 080 pixels Display aspect ratio : 16:9 Frame rate mode : Constant Frame rate : 23.976 (24000/1001) FPS Color space : YUV Chroma subsampling : 4:2:0 Bit depth : 10 bits Bits/(Pixel*Frame) : 0.026 Stream size : 225 MiB (62%) Writing library : x265 3.5+1-f0c1022b6:[Windows][GCC 9.2.0][64 bit] 10bit Encoding settings : cpuid=1111039 / frame-threads=2 / numa-pools=4 / wpp / no-pmode / no-pme / no-psnr / no-ssim / log-level=2 / input-csp=1 / input-res=1920x1080 / interlace=0 / total-frames=0 / level-idc=40 / high-tier=1 / uhd-bd=0 / ref=5 / no-allow-non-conformance / no-repeat-headers / annexb / no-aud / no-hrd / info / hash=0 / no-temporal-layers / open-gop / min-keyint=24 / keyint=240 / gop-lookahead=0 / bframes=16 / b-adapt=2 / b-pyramid / bframe-bias=0 / rc-lookahead=120 / lookahead-slices=4 / scenecut=40 / hist-scenecut=0 / radl=0 / no-splice / no-intra-refresh / ctu=64 / min-cu-size=8 / rect / no-amp / max-tu-size=32 / tu-inter-depth=1 / tu-intra-depth=1 / limit-tu=0 / rdoq-level=1 / dynamic-rd=0.00 / no-ssim-rd / signhide / no-tskip / nr-intra=0 / nr-inter=0 / no-constrained-intra / no-strong-intra-smoothing / max-merge=3 / limit-refs=3 / limit-modes / me=3 / subme=3 / merange=57 / temporal-mvp / no-frame-dup / no-hme / weightp / no-weightb / no-analyze-src-pics / deblock=-1:-1 / no-sao / no-sao-non-deblock / rd=4 / selective-sao=0 / no-early-skip / rskip / no-fast-intra / no-tskip-fast / no-cu-lossless / no-b-intra / no-splitrd-skip / rdpenalty=0 / psy-rd=2.00 / psy-rdoq=2.00 / no-rd-refine / no-lossless / cbqpoffs=0 / crqpoffs=0 / rc=crf / crf=22.5 / qcomp=0.60 / qpstep=4 / stats-write=0 / stats-read=0 / vbv-maxrate=30000 / vbv-bufsize=30000 / vbv-init=0.9 / min-vbv-fullness=50.0 / max-vbv-fullness=80.0 / crf-max=0.0 / crf-min=0.0 / ipratio=1.40 / pbratio=1.30 / aq-mode=3 / aq-strength=0.80 / cutree / zone-count=0 / no-strict-cbr / qg-size=32 / no-rc-grain / qpmax=69 / qpmin=0 / no-const-vbv / sar=1 / overscan=0 / videoformat=5 / range=0 / colorprim=1 / transfer=1 / colormatrix=1 / chromaloc=0 / display-window=0 / cll=0,0 / min-luma=0 / max-luma=1023 / log2-max-poc-lsb=8 / vui-timing-info / vui-hrd-info / slices=1 / no-opt-qp-pps / no-opt-ref-list-length-pps / no-multi-pass-opt-rps / scenecut-bias=0.05 / hist-threshold=0.03 / no-opt-cu-delta-qp / no-aq-motion / no-hdr10 / no-hdr10-opt / no-dhdr10-opt / no-idr-recovery-sei / analysis-reuse-level=0 / analysis-save-reuse-level=0 / analysis-load-reuse-level=0 / scale-factor=0 / refine-intra=0 / refine-inter=0 / refine-mv=1 / refine-ctu-distortion=0 / no-limit-sao / ctu-info=0 / no-lowpass-dct / refine-analysis-type=0 / copy-pic=1 / max-ausize-factor=1.0 / no-dynamic-refine / no-single-sei / no-hevc-aq / no-svt / no-field / qp-adaptation-range=1.00 / scenecut-aware-qp=0conformance-window-offsets / right=0 / bottom=0 / decoder-max-rate=0 / no-vbv-live-multi-pass Default : Yes Forced : No Color range : Limited Color primaries : BT.709 Transfer characteristics : BT.709 Matrix coefficients : BT.709 Audio ID : 2 Format : AAC LC Format/Info : Advanced Audio Codec Low Complexity Codec ID : A_AAC-2 Duration : 24 min 12 s Bit rate : 113 kb/s Channel(s) : 2 channels Channel layout : L R Sampling rate : 48.0 kHz Frame rate : 46.875 FPS (1024 SPF) Compression mode : Lossy Stream size : 19.6 MiB (5%) Title : Japanese Language : Japanese Default : Yes Forced : No Text ID : 3 Format : ASS Codec ID : S_TEXT/ASS Codec ID/Info : Advanced Sub Station Alpha Duration : 24 min 4 s Bit rate : 672 kb/s Frame rate : 2.858 FPS Count of elements : 4129 Compression mode : Lossless Stream size : 116 MiB (32%) Title : Dialogue Language : English Default : Yes Forced : No Menu 00:00:00.000 : :Intro 00:01:25.980 : :OP 00:02:56.030 : :Episode 00:22:09.060 : :ED 00:23:39.060 : :Outro 00:23:51.080 : :Preview ```

File list

  • [neoDESU] Deaimon - Recipe for Happiness [Season 1] [BD 1080p x265 HEVC AAC]
    • Deaimon - Recipe for Happiness - S01E01.mkv (362.2 MiB)
    • Deaimon - Recipe for Happiness - S01E02.mkv (220.4 MiB)
    • Deaimon - Recipe for Happiness - S01E03.mkv (245.4 MiB)
    • Deaimon - Recipe for Happiness - S01E04.mkv (265.3 MiB)
    • Deaimon - Recipe for Happiness - S01E05.mkv (416.5 MiB)
    • Deaimon - Recipe for Happiness - S01E06.mkv (245.4 MiB)
    • Deaimon - Recipe for Happiness - S01E07.mkv (220.1 MiB)
    • Deaimon - Recipe for Happiness - S01E08.mkv (341.7 MiB)
    • Deaimon - Recipe for Happiness - S01E09.mkv (246.8 MiB)
    • Deaimon - Recipe for Happiness - S01E10.mkv (408.8 MiB)
    • Deaimon - Recipe for Happiness - S01E11.mkv (284.7 MiB)
    • Deaimon - Recipe for Happiness - S01E12.mkv (250.0 MiB)
Thank you for completing the signs & audio, and the episodes' main subtitles and making it into a single subtitle file. It's really hard playing it on VLC or most players out there who doesn't support enabling multiple subtitles at once. Now I can properly binge this wonderful "Childcare" series non-stop without needing to enable/disable the subs without further hindrances. >_< By the way, the OP and ED's colorful subtitle were quite cute but it's a bit hard to read it because of lack of text's outlines/borders, the glow and direction movement really helps.