Zombie.Land.Saga.S02.1080p.BluRay.10-Bit.Dual-Audio.FLAC5.1.x265-YURASUKA (Zombieland Saga Revenge)

Category:
Date:
2023-07-15 03:58 UTC
Submitter:
Seeders:
19
Information:
Leechers:
0
File size:
12.0 GiB
Completed:
719
Info hash:
29b5032c43cc24d19d0b853f004213a62d487748
Zombie Land Saga Season 2 / Revenge (2021) A/V Source: Passion@U2 (JPBD) English Audio Source: DarkraiArceus001@U2 (USBD) Subtitles Source: [EMBER@Nyaa](https://nyaa.si/view/1457841) (Crunchyroll) [Encode Comparison](https://slow.pics/c/OqbmJNqy) ``` Complete name : Zombie.Land.Saga.S02E12.1080p.BluRay.10-Bit.Dual-Audio.FLAC5.1.x265-YURASUKA.mkv Format : Matroska Format version : Version 4 File size : 1.57 GiB Duration : 27 min 8 s Overall bit rate mode : Variable Overall bit rate : 8 267 kb/s Frame rate : 23.976 FPS Movie name : Zombie Land Saga - S02E12 - YURASUKA Encoded date : 2023-07-14 23:48:03 UTC Writing application : mkvmerge v77.0 ('Elemental') 64-bit Writing library : libebml v1.4.4 + libmatroska v1.7.1 Attachments : ARIALBD_0.ttf / Cremona.ttf / GandhiSans-Bold.otf / GandhiSans-BoldItalic.otf / timesbd_0.ttf / trebuc.ttf / trebucbd.ttf / trebucbi.ttf Video ID : 1 Format : HEVC Format/Info : High Efficiency Video Coding Format profile : Main 10@L5@High Codec ID : V_MPEGH/ISO/HEVC Duration : 27 min 8 s Bit rate : 6 024 kb/s Width : 1 920 pixels Height : 1 080 pixels Display aspect ratio : 16:9 Frame rate mode : Constant Frame rate : 23.976 (24000/1001) FPS Color space : YUV Chroma subsampling : 4:2:0 Bit depth : 10 bits Bits/(Pixel*Frame) : 0.121 Stream size : 1.14 GiB (73%) Title : YURASUKA 1080p x265 Writing library : x265 3.5:[Linux][GCC 11.2.0][64 bit] 10bit Encoding settings : cpuid=1111039 / frame-threads=4 / numa-pools=24 / wpp / no-pmode / no-pme / no-psnr / no-ssim / log-level=2 / input-csp=1 / input-res=1920x1080 / interlace=0 / total-frames=0 / level-idc=0 / high-tier=1 / uhd-bd=0 / ref=6 / no-allow-non-conformance / no-repeat-headers / annexb / no-aud / no-hrd / info / hash=0 / no-temporal-layers / open-gop / min-keyint=1 / keyint=360 / gop-lookahead=0 / bframes=16 / b-adapt=2 / b-pyramid / bframe-bias=0 / rc-lookahead=72 / lookahead-slices=4 / scenecut=40 / hist-scenecut=0 / radl=0 / no-splice / no-intra-refresh / ctu=32 / min-cu-size=8 / rect / amp / max-tu-size=32 / tu-inter-depth=4 / tu-intra-depth=4 / limit-tu=0 / rdoq-level=2 / dynamic-rd=4.00 / no-ssim-rd / signhide / tskip / nr-intra=0 / nr-inter=0 / no-constrained-intra / strong-intra-smoothing / max-merge=3 / limit-refs=3 / limit-modes / me=3 / subme=7 / merange=57 / temporal-mvp / no-frame-dup / no-hme / weightp / weightb / no-analyze-src-pics / deblock=0:0 / no-sao / no-sao-non-deblock / rd=4 / selective-sao=0 / no-early-skip / rskip / no-fast-intra / no-tskip-fast / no-cu-lossless / b-intra / no-splitrd-skip / rdpenalty=0 / psy-rd=2.00 / psy-rdoq=2.00 / no-rd-refine / no-lossless / cbqpoffs=0 / crqpoffs=0 / rc=crf / crf=16.0 / qcomp=0.72 / qpstep=4 / stats-write=0 / stats-read=0 / vbv-maxrate=20000 / vbv-bufsize=40000 / vbv-init=0.9 / min-vbv-fullness=50.0 / max-vbv-fullness=80.0 / crf-max=0.0 / crf-min=0.0 / ipratio=1.40 / pbratio=1.30 / aq-mode=3 / aq-strength=0.85 / cutree / zone-count=0 / no-strict-cbr / qg-size=32 / no-rc-grain / qpmax=69 / qpmin=0 / no-const-vbv / sar=0 / overscan=0 / videoformat=5 / range=0 / colorprim=1 / transfer=1 / colormatrix=1 / chromaloc=0 / display-window=0 / cll=0,0 / min-luma=0 / max-luma=1023 / log2-max-poc-lsb=8 / vui-timing-info / vui-hrd-info / slices=1 / no-opt-qp-pps / no-opt-ref-list-length-pps / no-multi-pass-opt-rps / scenecut-bias=0.05 / hist-threshold=0.03 / no-opt-cu-delta-qp / no-aq-motion / no-hdr10 / no-hdr10-opt / no-dhdr10-opt / no-idr-recovery-sei / analysis-reuse-level=0 / analysis-save-reuse-level=0 / analysis-load-reuse-level=0 / scale-factor=0 / refine-intra=0 / refine-inter=0 / refine-mv=1 / refine-ctu-distortion=0 / no-limit-sao / ctu-info=0 / no-lowpass-dct / refine-analysis-type=0 / copy-pic=1 / max-ausize-factor=1.0 / no-dynamic-refine / no-single-sei / no-hevc-aq / no-svt / no-field / qp-adaptation-range=1.00 / scenecut-aware-qp=0conformance-window-offsets / right=0 / bottom=0 / decoder-max-rate=0 / no-vbv-live-multi-pass Language : Japanese Default : Yes Forced : No Color range : Limited Color primaries : BT.709 Transfer characteristics : BT.709 Matrix coefficients : BT.709 Audio #1 ID : 2 Format : FLAC Format/Info : Free Lossless Audio Codec Codec ID : A_FLAC Duration : 27 min 0 s Bit rate mode : Variable Bit rate : 1 383 kb/s Channel(s) : 6 channels Channel layout : L R C LFE Ls Rs Sampling rate : 48.0 kHz Frame rate : 10.417 FPS (4608 SPF) Bit depth : 16 bits Compression mode : Lossless Delay relative to video : 55 ms Stream size : 267 MiB (17%) Title : English FLAC 5.1 Writing library : Lavf60.3.100 Language : English Default : Yes Forced : No MD5 of the unencoded content : 27FF95E351EF019DCCC40E01C46CDFD0 Audio #2 ID : 3 Format : FLAC Format/Info : Free Lossless Audio Codec Codec ID : A_FLAC Duration : 27 min 8 s Bit rate mode : Variable Bit rate : 695 kb/s Channel(s) : 2 channels Channel layout : L R Sampling rate : 48.0 kHz Frame rate : 10.417 FPS (4608 SPF) Bit depth : 16 bits Compression mode : Lossless Stream size : 135 MiB (8%) Title : Japanese FLAC 2.0 Writing library : Lavf60.3.100 Language : Japanese Default : No Forced : No MD5 of the unencoded content : 07BE346D81BE54E94C33DA0D0B1FFC7C Text #1 ID : 4 Format : ASS Codec ID : S_TEXT/ASS Codec ID/Info : Advanced Sub Station Alpha Duration : 26 min 43 s Bit rate : 41 b/s Frame rate : 0.080 FPS Count of elements : 129 Compression mode : Lossless Stream size : 8.18 KiB (0%) Title : Signs & Songs [EMBER] Language : English Default : Yes Forced : Yes Text #2 ID : 5 Format : ASS Codec ID : S_TEXT/ASS Codec ID/Info : Advanced Sub Station Alpha Duration : 26 min 43 s Bit rate : 129 b/s Frame rate : 0.223 FPS Count of elements : 357 Compression mode : Lossless Stream size : 25.4 KiB (0%) Title : Full Subtitles [EMBER] Language : English Default : No Forced : No Menu 00:00:00.000 : en:Intro 00:01:56.890 : en:Part A 00:08:07.927 : en:Part B 00:23:01.862 : en:Part C 00:26:43.166 : en:Outro ``` Dead end for a sucker that’s a sucker like me. 私のようなカモの行き止まりです。

File list

  • Zombie.Land.Saga.S02.1080p.BluRay.10-Bit.Dual-Audio.FLAC5.1.x265-YURASUKA
    • Zombie.Land.Saga.S02E01.1080p.BluRay.10-Bit.Dual-Audio.FLAC5.1.x265-YURASUKA.mkv (962.4 MiB)
    • Zombie.Land.Saga.S02E02.1080p.BluRay.10-Bit.Dual-Audio.FLAC5.1.x265-YURASUKA.mkv (1009.7 MiB)
    • Zombie.Land.Saga.S02E03.1080p.BluRay.10-Bit.Dual-Audio.FLAC5.1.x265-YURASUKA.mkv (1.1 GiB)
    • Zombie.Land.Saga.S02E04.1080p.BluRay.10-Bit.Dual-Audio.FLAC5.1.x265-YURASUKA.mkv (1.2 GiB)
    • Zombie.Land.Saga.S02E05.1080p.BluRay.10-Bit.Dual-Audio.FLAC5.1.x265-YURASUKA.mkv (943.0 MiB)
    • Zombie.Land.Saga.S02E06.1080p.BluRay.10-Bit.Dual-Audio.FLAC5.1.x265-YURASUKA.mkv (1.1 GiB)
    • Zombie.Land.Saga.S02E07.1080p.BluRay.10-Bit.Dual-Audio.FLAC5.1.x265-YURASUKA.mkv (855.4 MiB)
    • Zombie.Land.Saga.S02E08.1080p.BluRay.10-Bit.Dual-Audio.FLAC5.1.x265-YURASUKA.mkv (991.1 MiB)
    • Zombie.Land.Saga.S02E09.1080p.BluRay.10-Bit.Dual-Audio.FLAC5.1.x265-YURASUKA.mkv (932.5 MiB)
    • Zombie.Land.Saga.S02E10.1080p.BluRay.10-Bit.Dual-Audio.FLAC5.1.x265-YURASUKA.mkv (872.7 MiB)
    • Zombie.Land.Saga.S02E11.1080p.BluRay.10-Bit.Dual-Audio.FLAC5.1.x265-YURASUKA.mkv (684.2 MiB)
    • Zombie.Land.Saga.S02E12.1080p.BluRay.10-Bit.Dual-Audio.FLAC5.1.x265-YURASUKA.mkv (1.6 GiB)