[Yousei-raws] Minami-ke Natsuyasumi [DVDrip 1024x576 x264 AC3]

Category:
Date:
2023-07-12 12:34 UTC
Submitter:
Seeders:
4
File size:
361.3 MiB
Completed:
136
Info hash:
366ab87e4c9af4a78bf3ab6711cbe1fea104be71
Name | Rōmaji | Year | Episodes | Nyaa | yousei-raws | aniDB | MAL | English subtitles --- | --- | --- | --- | --- | --- | --- | --- | --- みなみけ | Minami-ke | 2007 | 13 | [Nyaa](/view/1691999) | [yousei-raws](https://yousei-raws.org/releases/minami-ke) | [aniDB](https://anidb.net/anime/4309) | [MAL](https://myanimelist.net/anime/2963/Minami-ke) | [kitsunekko](https://kitsunekko.net/dirlist.php?dir=subtitles%2FMinami-ke%2F) みなみけ~おかわり~ | Minami-ke Okawari | 2008 | 13 | [Nyaa](/view/332836) | [yousei-raws](https://yousei-raws.org/releases/minami-ke-okawari) | [aniDB](https://anidb.net/anime/5510) | [MAL](https://myanimelist.net/anime/3225/Minami-ke_Okawari) | [kitsunekko](https://kitsunekko.net/dirlist.php?dir=subtitles%2FMinami-ke+Okawari%2F) みなみけ おかえり | Minami-ke Okaeri | 2009 | 13 | [Nyaa](/view/1692000) | [yousei-raws](https://yousei-raws.org/releases/minami-ke-okaeri) | [aniDB](https://anidb.net/anime/6219) | [MAL](https://myanimelist.net/anime/5162/Minami-ke_Okaeri) | [kitsunekko](https://kitsunekko.net/dirlist.php?dir=subtitles%2FMinami-ke+Okaeri%2F) みなみけ べつばら | Minami-ke Betsubara | 2009 | 1 | [Nyaa](/view/477062) | [yousei-raws](https://yousei-raws.org/releases/minami-ke-betsubara) | [aniDB](https://anidb.net/anime/6654) | [MAL](https://myanimelist.net/anime/5713/Minami-ke_Betsubara) | [kitsunekko](https://kitsunekko.net/dirlist.php?dir=subtitles%2FMinami-ke+Betsubara%2F) みなみけ おまたせ | Minami-ke Omatase | 2012 | 1 | [Nyaa](/view/1692001) | [yousei-raws](https://yousei-raws.org/releases/minami-ke-omatase) | [aniDB](https://anidb.net/anime/9267) | [MAL](https://myanimelist.net/anime/14575/Minami-ke_Omatase) | [Yousei-raws](https://yousei-raws.org/sites/default/files/subs/Minami-ke%20Omatase%20english%20subtitles.zip) みなみけ ただいま | Minami-ke Tadaima | 2013 | 13 | [Nyaa](/view/469470) | [yousei-raws](https://yousei-raws.org/releases/minami-ke-tadaima) | [aniDB](https://anidb.net/anime/9075) | [MAL](https://myanimelist.net/anime/14511/Minami-ke_Tadaima) | [kitsunekko](https://kitsunekko.net/dirlist.php?dir=subtitles%2FMinami-ke+Tadaima%2F) みなみけ 夏やすみ | Minami-ke Natsuyasumi | 2013 | 1 | **Nyaa** | [yousei-raws](https://yousei-raws.org/releases/minami-ke-natsuyasumi) | [aniDB](https://anidb.net/anime/10015) | [MAL](https://myanimelist.net/anime/20221/Minami-ke_Natsuyasumi) | - MediaInfo: ``` General Unique ID : 242841421659133659284509771123491541105 (0xB6B18E7B7162433089AE5D3FB2471071) Complete name : [Yousei-raws] Minami-ke Natsuyasumi [DVDrip 1024x576 x264 AC3].mkv Format : Matroska Format version : Version 4 File size : 297 MiB Duration : 28 min 15 s Overall bit rate : 1 468 kb/s Frame rate : 23.976 FPS Movie name : みなみけ 夏やすみ Encoded date : 2016-06-13 14:45:50 UTC Writing application : mkvmerge v9.2.0 ('Photograph') 64bit Writing library : libebml v1.3.3 + libmatroska v1.4.4 Video ID : 1 Format : AVC Format/Info : Advanced Video Codec Format profile : High 10@L4 Format settings : CABAC / 12 Ref Frames Format settings, CABAC : Yes Format settings, Reference frames : 12 frames Codec ID : V_MPEG4/ISO/AVC Duration : 28 min 15 s Bit rate : 1 038 kb/s Width : 1 024 pixels Height : 576 pixels Display aspect ratio : 16:9 Frame rate mode : Constant Frame rate : 23.976 (24000/1001) FPS Color space : YUV Chroma subsampling : 4:2:0 Bit depth : 10 bits Scan type : Progressive Bits/(Pixel*Frame) : 0.073 Stream size : 206 MiB (69%) Title : DVDrip by Kirill Writing library : x264 core 148 r2694 3b70645 Encoding settings : cabac=1 / ref=12 / deblock=1:-1:-1 / analyse=0x3:0x133 / me=umh / subme=9 / psy=1 / psy_rd=0.90:0.00 / mixed_ref=1 / me_range=32 / chroma_me=1 / trellis=2 / 8x8dct=1 / cqm=0 / deadzone=21,11 / fast_pskip=1 / chroma_qp_offset=-2 / threads=12 / lookahead_threads=3 / sliced_threads=0 / nr=0 / decimate=0 / interlaced=0 / bluray_compat=0 / constrained_intra=0 / bframes=12 / b_pyramid=2 / b_adapt=2 / b_bias=0 / direct=3 / weightb=1 / open_gop=0 / weightp=2 / keyint=250 / keyint_min=23 / scenecut=40 / intra_refresh=0 / rc=2pass / mbtree=0 / bitrate=1038 / ratetol=60.0 / qcomp=0.75 / qpmin=10 / qpmax=36 / qpstep=4 / cplxblur=20.0 / qblur=0.5 / ip_ratio=1.40 / pb_ratio=1.30 / aq=1:0.95 Language : Japanese Default : Yes Forced : No Color range : Limited Matrix coefficients : BT.470 System B/G Audio ID : 2 Format : AC-3 Format/Info : Audio Coding 3 Commercial name : Dolby Digital Codec ID : A_AC3 Duration : 28 min 15 s Bit rate mode : Constant Bit rate : 448 kb/s Channel(s) : 2 channels Channel layout : L R Sampling rate : 48.0 kHz Frame rate : 31.250 FPS (1536 SPF) Compression mode : Lossy Stream size : 90.6 MiB (31%) Title : Original audio Language : Japanese Service kind : Complete Main Default : Yes Forced : No Menu 00:00:00.000 : ja:Chapter1 00:00:23.690 : ja:Chapter2 00:10:32.674 : ja:Chapter3 00:22:08.244 : ja:エンディング 00:23:58.687 : ja:ボーナストラック 決断した! ```

File list

  • [Yousei-raws] Minami-ke Natsuyasumi [DVDrip 1024x576 x264 AC3]
    • Scans
      • 1a74f752.jpg (440.2 KiB)
      • 5a7dc17e.jpg (405.4 KiB)
      • 711c0c7b.jpg (446.1 KiB)
      • 961a65b8.jpg (322.5 KiB)
      • a3513fea.jpg (393.2 KiB)
      • bac17f4f.jpg (608.5 KiB)
      • f6a4cf96.jpg (655.8 KiB)
    • [Yousei-raws] Minami-ke Natsuyasumi (DVD menu) [DVDrip 1024x576 x264 FLAC].mkv (61.4 MiB)
    • [Yousei-raws] Minami-ke Natsuyasumi [DVDrip 1024x576 x264 AC3].mkv (296.7 MiB)