[Yousei-raws] Minami-ke Omatase [DVDrip 1024x576 x264 AC3]

Category:
Date:
2023-07-12 12:34 UTC
Submitter:
Seeders:
4
File size:
374.1 MiB
Completed:
140
Info hash:
8576c06cba1edca273c0c22630f8b5812dc63c78
Name | Rōmaji | Year | Episodes | Nyaa | yousei-raws | aniDB | MAL | English subtitles --- | --- | --- | --- | --- | --- | --- | --- | --- みなみけ | Minami-ke | 2007 | 13 | [Nyaa](/view/1691999) | [yousei-raws](https://yousei-raws.org/releases/minami-ke) | [aniDB](https://anidb.net/anime/4309) | [MAL](https://myanimelist.net/anime/2963/Minami-ke) | [kitsunekko](https://kitsunekko.net/dirlist.php?dir=subtitles%2FMinami-ke%2F) みなみけ~おかわり~ | Minami-ke Okawari | 2008 | 13 | [Nyaa](/view/332836) | [yousei-raws](https://yousei-raws.org/releases/minami-ke-okawari) | [aniDB](https://anidb.net/anime/5510) | [MAL](https://myanimelist.net/anime/3225/Minami-ke_Okawari) | [kitsunekko](https://kitsunekko.net/dirlist.php?dir=subtitles%2FMinami-ke+Okawari%2F) みなみけ おかえり | Minami-ke Okaeri | 2009 | 13 | [Nyaa](/view/1692000) | [yousei-raws](https://yousei-raws.org/releases/minami-ke-okaeri) | [aniDB](https://anidb.net/anime/6219) | [MAL](https://myanimelist.net/anime/5162/Minami-ke_Okaeri) | [kitsunekko](https://kitsunekko.net/dirlist.php?dir=subtitles%2FMinami-ke+Okaeri%2F) みなみけ べつばら | Minami-ke Betsubara | 2009 | 1 | [Nyaa](/view/477062) | [yousei-raws](https://yousei-raws.org/releases/minami-ke-betsubara) | [aniDB](https://anidb.net/anime/6654) | [MAL](https://myanimelist.net/anime/5713/Minami-ke_Betsubara) | [kitsunekko](https://kitsunekko.net/dirlist.php?dir=subtitles%2FMinami-ke+Betsubara%2F) みなみけ おまたせ | Minami-ke Omatase | 2012 | 1 | **Nyaa** | [yousei-raws](https://yousei-raws.org/releases/minami-ke-omatase) | [aniDB](https://anidb.net/anime/9267) | [MAL](https://myanimelist.net/anime/14575/Minami-ke_Omatase) | [Yousei-raws](https://yousei-raws.org/sites/default/files/subs/Minami-ke%20Omatase%20english%20subtitles.zip) みなみけ ただいま | Minami-ke Tadaima | 2013 | 13 | [Nyaa](/view/469470) | [yousei-raws](https://yousei-raws.org/releases/minami-ke-tadaima) | [aniDB](https://anidb.net/anime/9075) | [MAL](https://myanimelist.net/anime/14511/Minami-ke_Tadaima) | [kitsunekko](https://kitsunekko.net/dirlist.php?dir=subtitles%2FMinami-ke+Tadaima%2F) みなみけ 夏やすみ | Minami-ke Natsuyasumi | 2013 | 1 | [Nyaa](/view/1692002) | [yousei-raws](https://yousei-raws.org/releases/minami-ke-natsuyasumi) | [aniDB](https://anidb.net/anime/10015) | [MAL](https://myanimelist.net/anime/20221/Minami-ke_Natsuyasumi) | - MediaInfo: ``` General Unique ID : 300196024660332324585550085541241073149 (0xE1D7A6BC1DE57E7012BE846AD3C4ADFD) Complete name : [Yousei-raws] Minami-ke Omatase [DVDrip 1024x576 x264 AC3].mkv Format : Matroska Format version : Version 2 File size : 331 MiB Duration : 25 min 23 s Overall bit rate : 1 821 kb/s Frame rate : 23.976 FPS Movie name : みなみけ おまたせ Encoded date : 2012-11-10 02:29:46 UTC Writing application : mkvmerge v5.8.0 ('No Sleep / Pillow') built on Sep 2 2012 14:35:40 Writing library : libebml v1.2.2 + libmatroska v1.3.0 Video ID : 1 Format : AVC Format/Info : Advanced Video Codec Format profile : High 10@L4 Format settings : CABAC / 12 Ref Frames Format settings, CABAC : Yes Format settings, Reference frames : 12 frames Muxing mode : Header stripping Codec ID : V_MPEG4/ISO/AVC Duration : 25 min 23 s Bit rate : 1 384 kb/s Width : 1 024 pixels Height : 576 pixels Display aspect ratio : 16:9 Frame rate mode : Constant Frame rate : 23.976 (24000/1001) FPS Color space : YUV Chroma subsampling : 4:2:0 Bit depth : 10 bits Scan type : Progressive Bits/(Pixel*Frame) : 0.098 Stream size : 243 MiB (73%) Title : DVDrip by Kirill Writing library : x264 core 129 r2230 1cffe9f Encoding settings : cabac=1 / ref=12 / deblock=1:-1:-1 / analyse=0x3:0x133 / me=umh / subme=9 / psy=1 / psy_rd=0.90:0.00 / mixed_ref=1 / me_range=32 / chroma_me=1 / trellis=2 / 8x8dct=1 / cqm=0 / deadzone=21,11 / fast_pskip=1 / chroma_qp_offset=-2 / threads=12 / lookahead_threads=2 / sliced_threads=0 / nr=0 / decimate=0 / interlaced=0 / bluray_compat=0 / constrained_intra=0 / bframes=12 / b_pyramid=2 / b_adapt=2 / b_bias=0 / direct=3 / weightb=1 / open_gop=0 / weightp=2 / keyint=250 / keyint_min=23 / scenecut=40 / intra_refresh=0 / rc=2pass / mbtree=0 / bitrate=1384 / ratetol=60.0 / qcomp=0.75 / qpmin=10 / qpmax=36 / qpstep=4 / cplxblur=20.0 / qblur=0.5 / ip_ratio=1.40 / pb_ratio=1.30 / aq=1:0.95 Language : Japanese Default : Yes Forced : No Color range : Limited Matrix coefficients : BT.470 System B/G Audio ID : 2 Format : AC-3 Format/Info : Audio Coding 3 Commercial name : Dolby Digital Muxing mode : Header stripping Codec ID : A_AC3 Duration : 25 min 23 s Bit rate mode : Constant Bit rate : 448 kb/s Channel(s) : 2 channels Channel layout : L R Sampling rate : 48.0 kHz Frame rate : 31.250 FPS (1536 SPF) Compression mode : Lossy Stream size : 81.4 MiB (25%) Title : Original audio Language : Japanese Service kind : Complete Main Default : Yes Forced : No Menu 00:00:00.000 : ja:オープニング 00:01:43.020 : ja:魔法の言葉 00:06:22.465 : ja:フンイキ 00:10:48.189 : ja:気まぐれ 00:16:45.671 : ja:暑いからね 00:20:27.017 : ja:エンディング 00:21:57.024 : ja:どことなく ```

File list