[Yousei-raws] Minami-ke Okaeri [DVDrip 1024x576 x264 AC3]

Category:
Date:
2023-07-12 12:34 UTC
Submitter:
Seeders:
2
File size:
7.0 GiB
Completed:
91
Info hash:
2eed999d4532614bbb575c836dbaea298e2deb20
Name | Rōmaji | Year | Episodes | Nyaa | yousei-raws | aniDB | MAL | English subtitles --- | --- | --- | --- | --- | --- | --- | --- | --- みなみけ | Minami-ke | 2007 | 13 | [Nyaa](/view/1691999) | [yousei-raws](https://yousei-raws.org/releases/minami-ke) | [aniDB](https://anidb.net/anime/4309) | [MAL](https://myanimelist.net/anime/2963/Minami-ke) | [kitsunekko](https://kitsunekko.net/dirlist.php?dir=subtitles%2FMinami-ke%2F) みなみけ~おかわり~ | Minami-ke Okawari | 2008 | 13 | [Nyaa](/view/332836) | [yousei-raws](https://yousei-raws.org/releases/minami-ke-okawari) | [aniDB](https://anidb.net/anime/5510) | [MAL](https://myanimelist.net/anime/3225/Minami-ke_Okawari) | [kitsunekko](https://kitsunekko.net/dirlist.php?dir=subtitles%2FMinami-ke+Okawari%2F) みなみけ おかえり | Minami-ke Okaeri | 2009 | 13 | **Nyaa** | [yousei-raws](https://yousei-raws.org/releases/minami-ke-okaeri) | [aniDB](https://anidb.net/anime/6219) | [MAL](https://myanimelist.net/anime/5162/Minami-ke_Okaeri) | [kitsunekko](https://kitsunekko.net/dirlist.php?dir=subtitles%2FMinami-ke+Okaeri%2F) みなみけ べつばら | Minami-ke Betsubara | 2009 | 1 | [Nyaa](/view/477062) | [yousei-raws](https://yousei-raws.org/releases/minami-ke-betsubara) | [aniDB](https://anidb.net/anime/6654) | [MAL](https://myanimelist.net/anime/5713/Minami-ke_Betsubara) | [kitsunekko](https://kitsunekko.net/dirlist.php?dir=subtitles%2FMinami-ke+Betsubara%2F) みなみけ おまたせ | Minami-ke Omatase | 2012 | 1 | [Nyaa](/view/1692001) | [yousei-raws](https://yousei-raws.org/releases/minami-ke-omatase) | [aniDB](https://anidb.net/anime/9267) | [MAL](https://myanimelist.net/anime/14575/Minami-ke_Omatase) | [Yousei-raws](https://yousei-raws.org/sites/default/files/subs/Minami-ke%20Omatase%20english%20subtitles.zip) みなみけ ただいま | Minami-ke Tadaima | 2013 | 13 | [Nyaa](/view/469470) | [yousei-raws](https://yousei-raws.org/releases/minami-ke-tadaima) | [aniDB](https://anidb.net/anime/9075) | [MAL](https://myanimelist.net/anime/14511/Minami-ke_Tadaima) | [kitsunekko](https://kitsunekko.net/dirlist.php?dir=subtitles%2FMinami-ke+Tadaima%2F) みなみけ 夏やすみ | Minami-ke Natsuyasumi | 2013 | 1 | [Nyaa](/view/1692002) | [yousei-raws](https://yousei-raws.org/releases/minami-ke-natsuyasumi) | [aniDB](https://anidb.net/anime/10015) | [MAL](https://myanimelist.net/anime/20221/Minami-ke_Natsuyasumi) | - MediaInfo: ``` General Unique ID : 195995231282105621016555630258824102491 (0x93734EF9175C7593911CF2FAA50B425B) Complete name : [Yousei-raws] Minami-ke Okaeri 01 [DVDrip 1024x576 x264 AC3].mkv Format : Matroska Format version : Version 2 File size : 463 MiB Duration : 23 min 44 s Overall bit rate : 2 728 kb/s Frame rate : 23.976 FPS Movie name : みなみけ おかえり 第1話 「年の初めの」 Encoded date : 2011-01-12 08:37:56 UTC Writing application : mkvmerge v4.4.0 ('Die Wiederkehr') сборка от Oct 31 2010 21:52:48 Writing library : libebml v1.0.0 + libmatroska v1.0.0 Video ID : 1 Format : AVC Format/Info : Advanced Video Codec Format profile : High@L4 Format settings : CABAC / 12 Ref Frames Format settings, CABAC : Yes Format settings, Reference frames : 12 frames Muxing mode : Header stripping Codec ID : V_MPEG4/ISO/AVC Duration : 23 min 44 s Bit rate : 2 323 kb/s Width : 1 024 pixels Height : 576 pixels Display aspect ratio : 16:9 Frame rate mode : Constant Frame rate : 23.976 (24000/1001) FPS Color space : YUV Chroma subsampling : 4:2:0 Bit depth : 8 bits Scan type : Progressive Bits/(Pixel*Frame) : 0.164 Stream size : 378 MiB (82%) Title : DVDrip by Kirill Writing library : x264 core 112 r1867 22bfd31 Encoding settings : cabac=1 / ref=12 / deblock=1:-2:-2 / analyse=0x3:0x133 / me=umh / subme=9 / psy=1 / psy_rd=0.90:0.00 / mixed_ref=1 / me_range=24 / chroma_me=1 / trellis=2 / 8x8dct=1 / cqm=0 / deadzone=21,11 / fast_pskip=1 / chroma_qp_offset=-2 / threads=12 / sliced_threads=0 / nr=0 / decimate=0 / interlaced=0 / constrained_intra=0 / bframes=10 / b_pyramid=2 / b_adapt=2 / b_bias=0 / direct=3 / weightb=1 / open_gop=0 / weightp=2 / keyint=250 / keyint_min=23 / scenecut=40 / intra_refresh=0 / rc=2pass / mbtree=0 / bitrate=2323 / ratetol=60.0 / qcomp=0.75 / qpmin=8 / qpmax=24 / qpstep=4 / cplxblur=20.0 / qblur=0.5 / ip_ratio=1.40 / pb_ratio=1.30 / aq=1:0.85 Language : Japanese Default : Yes Forced : No Color range : Limited Matrix coefficients : BT.470 System B/G Audio ID : 2 Format : AC-3 Format/Info : Audio Coding 3 Commercial name : Dolby Digital Muxing mode : Header stripping Codec ID : A_AC3 Duration : 23 min 44 s Bit rate mode : Constant Bit rate : 448 kb/s Channel(s) : 2 channels Channel layout : L R Sampling rate : 48.0 kHz Frame rate : 31.250 FPS (1536 SPF) Compression mode : Lossy Stream size : 76.1 MiB (16%) Title : Original audio Language : Japanese Service kind : Complete Main Default : Yes Forced : No Menu 00:00:00.000 : ja:アバン 00:04:02.868 : ja:Aパート 00:07:45.590 : ja:オープニング 00:09:15.597 : ja:Bパート 00:13:43.948 : ja:Cパート 00:16:47.381 : ja:エンディング 00:18:17.388 : ja:Dパート 00:23:29.950 : ja:次回予告 ```

File list

  • [Yousei-raws] Minami-ke Okaeri [DVDrip 1024x576 x264 AC3]
    • Scans
      • Special
        • DVD全巻収納BOX(天面).png (1.4 MiB)
        • DVD全巻収納BOX(底面).png (1.6 MiB)
        • DVD全巻収納BOX(背面).png (2.6 MiB)
        • DVD全巻収納BOX(表).png (8.3 MiB)
        • DVD全巻収納BOX(裏).png (7.5 MiB)
      • Vol 1
        • CDレーベル.png (4.6 MiB)
        • DVDレーベル.png (4.1 MiB)
        • パッケージ.png (23.2 MiB)
        • ブックレット 00.png (20.7 MiB)
        • ブックレット 01.png (22.1 MiB)
        • ブックレット 02.png (15.3 MiB)
        • ブックレット 03.png (12.9 MiB)
        • ブックレット 04.png (14.5 MiB)
        • ブックレット 05.png (18.2 MiB)
        • ブックレット 06.png (20.7 MiB)
        • ブックレット 07.png (14.3 MiB)
        • リーフレット(表).png (4.9 MiB)
        • リーフレット(裏).png (5.7 MiB)
      • Vol 2
        • CDレーベル.png (4.7 MiB)
        • DVDレーベル.png (4.7 MiB)
        • パッケージ.png (21.9 MiB)
        • ブックレット 00.png (21.7 MiB)
        • ブックレット 01.png (19.5 MiB)
        • ブックレット 02.png (15.3 MiB)
        • ブックレット 03.png (15.4 MiB)
        • ブックレット 04.png (18.7 MiB)
        • ブックレット 05.png (20.2 MiB)
        • ブックレット 06.png (14.5 MiB)
        • ブックレット 07.png (12.5 MiB)
        • リーフレット(表).png (6.0 MiB)
        • リーフレット(裏).png (5.0 MiB)
      • Vol 3
        • CDレーベル.png (3.7 MiB)
        • DVDレーベル.png (3.9 MiB)
        • パッケージ.png (19.9 MiB)
        • ブックレット 00.png (18.4 MiB)
        • ブックレット 01.png (17.5 MiB)
        • ブックレット 02.png (12.6 MiB)
        • ブックレット 03.png (11.5 MiB)
        • ブックレット 04.png (14.9 MiB)
        • ブックレット 05.png (16.9 MiB)
        • ブックレット 06.png (10.7 MiB)
        • ブックレット 07.png (10.6 MiB)
        • リーフレット(表).png (5.3 MiB)
        • リーフレット(裏).png (5.2 MiB)
      • Vol 4
        • CDレーベル.png (3.9 MiB)
        • DVDレーベル.png (3.8 MiB)
        • パッケージ.png (20.3 MiB)
        • ブックレット 00.png (18.4 MiB)
        • ブックレット 01.png (15.8 MiB)
        • ブックレット 02.png (12.2 MiB)
        • ブックレット 03.png (11.6 MiB)
        • ブックレット 04.png (12.7 MiB)
        • ブックレット 05.png (16.9 MiB)
        • ブックレット 06.png (17.1 MiB)
        • ブックレット 07.png (9.3 MiB)
        • リーフレット(表).png (5.0 MiB)
        • リーフレット(裏).png (4.1 MiB)
    • Minamike Okaeri english softsub by Ayako.zip (55.8 MiB)
    • [Yousei-raws] Minami-ke Okaeri (Creditless ED full ver.) [DVDrip 1024x576 x264 AC3].mkv (29.5 MiB)
    • [Yousei-raws] Minami-ke Okaeri (Creditless ED) [DVDrip 1024x576 x264 AC3].mkv (21.4 MiB)
    • [Yousei-raws] Minami-ke Okaeri (Creditless OP) [DVDrip 1024x576 x264 AC3].mkv (32.5 MiB)
    • [Yousei-raws] Minami-ke Okaeri (DVD menu Vol 1) [DVDrip 1024x576 x264 AC3].mkv (38.1 MiB)
    • [Yousei-raws] Minami-ke Okaeri (DVD menu Vol 2) [DVDrip 1024x576 x264 AC3].mkv (38.1 MiB)
    • [Yousei-raws] Minami-ke Okaeri (DVD menu Vol 3) [DVDrip 1024x576 x264 AC3].mkv (36.4 MiB)
    • [Yousei-raws] Minami-ke Okaeri (DVD menu Vol 4) [DVDrip 1024x576 x264 AC3].mkv (75.3 MiB)
    • [Yousei-raws] Minami-ke Okaeri (Spot collection) [DVDrip 1024x576 x264 AC3].mkv (118.1 MiB)
    • [Yousei-raws] Minami-ke Okaeri 01 [DVDrip 1024x576 x264 AC3].mkv (463.3 MiB)
    • [Yousei-raws] Minami-ke Okaeri 02 [DVDrip 1024x576 x264 AC3].mkv (466.0 MiB)
    • [Yousei-raws] Minami-ke Okaeri 03 [DVDrip 1024x576 x264 AC3].mkv (460.9 MiB)
    • [Yousei-raws] Minami-ke Okaeri 04 [DVDrip 1024x576 x264 AC3].mkv (481.0 MiB)
    • [Yousei-raws] Minami-ke Okaeri 05 [DVDrip 1024x576 x264 AC3].mkv (460.7 MiB)
    • [Yousei-raws] Minami-ke Okaeri 06 [DVDrip 1024x576 x264 AC3].mkv (461.6 MiB)
    • [Yousei-raws] Minami-ke Okaeri 07 [DVDrip 1024x576 x264 AC3].mkv (476.9 MiB)
    • [Yousei-raws] Minami-ke Okaeri 08 [DVDrip 1024x576 x264 AC3].mkv (475.9 MiB)
    • [Yousei-raws] Minami-ke Okaeri 09 [DVDrip 1024x576 x264 AC3].mkv (459.8 MiB)
    • [Yousei-raws] Minami-ke Okaeri 10 [DVDrip 1024x576 x264 AC3].mkv (460.0 MiB)
    • [Yousei-raws] Minami-ke Okaeri 11 [DVDrip 1024x576 x264 AC3].mkv (454.2 MiB)
    • [Yousei-raws] Minami-ke Okaeri 12 [DVDrip 1024x576 x264 AC3].mkv (483.5 MiB)
    • [Yousei-raws] Minami-ke Okaeri 13 [DVDrip 1024x576 x264 AC3].mkv (463.2 MiB)