[Yousei-raws] Minami-ke [DVDrip 1024x576 x264 AC-3]

Category:
Date:
2023-07-12 12:34 UTC
Submitter:
Seeders:
4
File size:
4.6 GiB
Completed:
109
Info hash:
bc74180ea8aab293bdf326ec8e57ff9539389f1b
Name | Rōmaji | Year | Episodes | Nyaa | yousei-raws | aniDB | MAL | English subtitles --- | --- | --- | --- | --- | --- | --- | --- | --- みなみけ | Minami-ke | 2007 | 13 | **Nyaa** | [yousei-raws](https://yousei-raws.org/releases/minami-ke) | [aniDB](https://anidb.net/anime/4309) | [MAL](https://myanimelist.net/anime/2963/Minami-ke) | [kitsunekko](https://kitsunekko.net/dirlist.php?dir=subtitles%2FMinami-ke%2F) みなみけ~おかわり~ | Minami-ke Okawari | 2008 | 13 | [Nyaa](/view/332836) | [yousei-raws](https://yousei-raws.org/releases/minami-ke-okawari) | [aniDB](https://anidb.net/anime/5510) | [MAL](https://myanimelist.net/anime/3225/Minami-ke_Okawari) | [kitsunekko](https://kitsunekko.net/dirlist.php?dir=subtitles%2FMinami-ke+Okawari%2F) みなみけ おかえり | Minami-ke Okaeri | 2009 | 13 | [Nyaa](/view/1692000) | [yousei-raws](https://yousei-raws.org/releases/minami-ke-okaeri) | [aniDB](https://anidb.net/anime/6219) | [MAL](https://myanimelist.net/anime/5162/Minami-ke_Okaeri) | [kitsunekko](https://kitsunekko.net/dirlist.php?dir=subtitles%2FMinami-ke+Okaeri%2F) みなみけ べつばら | Minami-ke Betsubara | 2009 | 1 | [Nyaa](/view/477062) | [yousei-raws](https://yousei-raws.org/releases/minami-ke-betsubara) | [aniDB](https://anidb.net/anime/6654) | [MAL](https://myanimelist.net/anime/5713/Minami-ke_Betsubara) | [kitsunekko](https://kitsunekko.net/dirlist.php?dir=subtitles%2FMinami-ke+Betsubara%2F) みなみけ おまたせ | Minami-ke Omatase | 2012 | 1 | [Nyaa](/view/1692001) | [yousei-raws](https://yousei-raws.org/releases/minami-ke-omatase) | [aniDB](https://anidb.net/anime/9267) | [MAL](https://myanimelist.net/anime/14575/Minami-ke_Omatase) | [Yousei-raws](https://yousei-raws.org/sites/default/files/subs/Minami-ke%20Omatase%20english%20subtitles.zip) みなみけ ただいま | Minami-ke Tadaima | 2013 | 13 | [Nyaa](/view/469470) | [yousei-raws](https://yousei-raws.org/releases/minami-ke-tadaima) | [aniDB](https://anidb.net/anime/9075) | [MAL](https://myanimelist.net/anime/14511/Minami-ke_Tadaima) | [kitsunekko](https://kitsunekko.net/dirlist.php?dir=subtitles%2FMinami-ke+Tadaima%2F) みなみけ 夏やすみ | Minami-ke Natsuyasumi | 2013 | 1 | [Nyaa](/view/1692002) | [yousei-raws](https://yousei-raws.org/releases/minami-ke-natsuyasumi) | [aniDB](https://anidb.net/anime/10015) | [MAL](https://myanimelist.net/anime/20221/Minami-ke_Natsuyasumi) | - MediaInfo: ``` General Unique ID : 221082702466318780795490467669494545819 (0xA652FACCBD9854D5A16B34F61F153D9B) Complete name : [Yousei-raws] Minami-ke 01 [DVDrip 1024x576 x264 AC-3].mkv Format : Matroska Format version : Version 2 File size : 334 MiB Duration : 23 min 45 s Overall bit rate : 1 966 kb/s Frame rate : 23.976 FPS Movie name : みなみけ 第1話 「南さんちの三姉妹」 Encoded date : 2011-06-29 17:40:24 UTC Writing application : mkvmerge v4.8.0 ('I Got The...') сборка от May 24 2011 03:12:58 Writing library : libebml v1.2.0 + libmatroska v1.1.0 Video ID : 1 Format : AVC Format/Info : Advanced Video Codec Format profile : High@L4 Format settings : CABAC / 12 Ref Frames Format settings, CABAC : Yes Format settings, Reference frames : 12 frames Muxing mode : Header stripping Codec ID : V_MPEG4/ISO/AVC Duration : 23 min 45 s Bit rate : 1 543 kb/s Width : 1 024 pixels Height : 576 pixels Display aspect ratio : 16:9 Frame rate mode : Constant Frame rate : 23.976 (24000/1001) FPS Color space : YUV Chroma subsampling : 4:2:0 Bit depth : 8 bits Scan type : Progressive Bits/(Pixel*Frame) : 0.109 Stream size : 251 MiB (75%) Title : DVDrip by Kirill Writing library : x264 core 115 r2008 4c552d8 Encoding settings : cabac=1 / ref=12 / deblock=1:-2:-2 / analyse=0x3:0x133 / me=umh / subme=9 / psy=1 / psy_rd=0.90:0.00 / mixed_ref=1 / me_range=24 / chroma_me=1 / trellis=2 / 8x8dct=1 / cqm=0 / deadzone=21,11 / fast_pskip=1 / chroma_qp_offset=-2 / threads=12 / sliced_threads=0 / nr=0 / decimate=0 / interlaced=0 / bluray_compat=0 / constrained_intra=0 / bframes=10 / b_pyramid=2 / b_adapt=2 / b_bias=0 / direct=3 / weightb=1 / open_gop=0 / weightp=2 / keyint=250 / keyint_min=23 / scenecut=40 / intra_refresh=0 / rc=2pass / mbtree=0 / bitrate=1543 / ratetol=60.0 / qcomp=0.75 / qpmin=8 / qpmax=24 / qpstep=4 / cplxblur=20.0 / qblur=0.5 / ip_ratio=1.40 / pb_ratio=1.30 / aq=1:0.85 Language : Japanese Default : Yes Forced : No Color range : Limited Matrix coefficients : BT.470 System B/G Audio ID : 2 Format : AC-3 Format/Info : Audio Coding 3 Commercial name : Dolby Digital Muxing mode : Header stripping Codec ID : A_AC3 Duration : 23 min 45 s Bit rate mode : Constant Bit rate : 448 kb/s Channel(s) : 2 channels Channel layout : L R Sampling rate : 48.0 kHz Frame rate : 31.250 FPS (1536 SPF) Compression mode : Lossy Stream size : 76.1 MiB (23%) Title : Original audio Language : Japanese Service kind : Complete Main Default : Yes Forced : No Menu 00:00:00.000 : ja:オープニング 00:01:45.022 : ja:A 1 パート 00:08:12.200 : ja:A 2 パート 00:12:46.015 : ja:B パート 00:22:00.069 : ja:エンディング 00:23:30.034 : ja:予告 ```

File list

  • [Yousei-raws] Minami-ke [DVDrip 1024x576 x264 AC-3]
    • Minami-ke english softsub by A-E & Saizen.zip (214.8 KiB)
    • [Yousei-raws] Minami-ke (Creditless ED ep 13) [DVDrip 1024x576 x264 AC-3].mkv (23.8 MiB)
    • [Yousei-raws] Minami-ke (Creditless ED) [DVDrip 1024x576 x264 AC-3].mkv (23.9 MiB)
    • [Yousei-raws] Minami-ke (Creditless OP) [DVDrip 1024x576 x264 AC-3].mkv (30.8 MiB)
    • [Yousei-raws] Minami-ke (DVD menu Vol 1) [DVDrip 1024x576 x264 AC-3].mkv (68.6 MiB)
    • [Yousei-raws] Minami-ke (DVD menu Vol 2) [DVDrip 1024x576 x264 AC-3].mkv (79.5 MiB)
    • [Yousei-raws] Minami-ke (DVD menu Vol 3) [DVDrip 1024x576 x264 AC-3].mkv (65.2 MiB)
    • [Yousei-raws] Minami-ke (DVD menu Vol 4) [DVDrip 1024x576 x264 AC-3].mkv (129.4 MiB)
    • [Yousei-raws] Minami-ke (Spot collection) [DVDrip 1024x576 x264 AC-3].mkv (133.3 MiB)
    • [Yousei-raws] Minami-ke 01 [DVDrip 1024x576 x264 AC-3].mkv (334.0 MiB)
    • [Yousei-raws] Minami-ke 02 [DVDrip 1024x576 x264 AC-3].mkv (301.3 MiB)
    • [Yousei-raws] Minami-ke 03 [DVDrip 1024x576 x264 AC-3].mkv (316.3 MiB)
    • [Yousei-raws] Minami-ke 04 [DVDrip 1024x576 x264 AC-3].mkv (331.2 MiB)
    • [Yousei-raws] Minami-ke 05 [DVDrip 1024x576 x264 AC-3].mkv (323.1 MiB)
    • [Yousei-raws] Minami-ke 06 [DVDrip 1024x576 x264 AC-3].mkv (331.9 MiB)
    • [Yousei-raws] Minami-ke 07 [DVDrip 1024x576 x264 AC-3].mkv (314.2 MiB)
    • [Yousei-raws] Minami-ke 08 [DVDrip 1024x576 x264 AC-3].mkv (325.9 MiB)
    • [Yousei-raws] Minami-ke 09 [DVDrip 1024x576 x264 AC-3].mkv (308.4 MiB)
    • [Yousei-raws] Minami-ke 10 [DVDrip 1024x576 x264 AC-3].mkv (314.0 MiB)
    • [Yousei-raws] Minami-ke 11 [DVDrip 1024x576 x264 AC-3].mkv (329.4 MiB)
    • [Yousei-raws] Minami-ke 12 [DVDrip 1024x576 x264 AC-3].mkv (326.7 MiB)
    • [Yousei-raws] Minami-ke 13 [DVDrip 1024x576 x264 AC-3].mkv (328.5 MiB)