Im.Now.Your.Sister.S01.1080p.BluRay.10-Bit.FLAC2.0.x265-YURASUKA (ONIMAI - Onii-chan wa Oshimai)

Category:
Date:
2023-07-08 06:12 UTC
Submitter:
Seeders:
34
Information:
Leechers:
1
File size:
7.2 GiB
Completed:
1345
Info hash:
3d2609733fbd7027a1dca1ccedf382f93f748f93
ONIMAI: I'm Now Your Sister! / Onii-chan wa Oshimai (2023) Note: Cute and funny. A/V Source: Noah@U2 (JPBD) Subtitles Source 1: [motbob@Nyaa](https://nyaa.si/view/1654825) [Okay-Subs] Subtitles Source 2: [eli@Nyaa](https://nyaa.si/view/1686709) [/a/nonymous] [Encode Comparison](https://slow.pics/c/OPCvs3Xe) ``` Complete name : Im.Now.Your.Sister.S01E04.1080p.BluRay.10-Bit.FLAC2.0.x265-YURASUKA.mkv Format : Matroska Format version : Version 4 File size : 698 MiB Duration : 23 min 49 s Overall bit rate mode : Variable Overall bit rate : 4 097 kb/s Frame rate : 23.976 FPS Movie name : I'm Now Your Sister! - S01E04 - YURASUKA Encoded date : 2023-07-07 13:24:31 UTC Writing application : mkvmerge v76.0 ('Celebration') 64-bit Writing library : libebml v1.4.4 + libmatroska v1.7.1 Attachments : DANIELBLACK.TTF / DENNEMARKER.TTF / ROCKOULTRAFLF-BOLD.TTF / GandhiSans-BoldItalic_0.otf / PENCILFIED.TTF / PIXELFONT-7.TTF / timesbd.ttf / trebucbd.ttf / verdanab.ttf / 123MARKER.TTF / arial.ttf / arialbd.ttf / comic.ttf / GandhiSans-Bold_0.otf / AMBERSHAND-PLAIN.TTF / ARIALROUNDEDMTSTD-EXTRABOLD.OTF / BANANACHIPS.TTF / BARTHOWHEELREGULAR.TTF / BIGFATMARKER.TTF / BLACKMETALSANS.TTF / BRUSHSTROKES.TTF / CATENARYSTAMP.TTF / CORPID-BOLD.OTF / DEBORSTELBRUSHREDUCED.TTF / DID.TTF / DisposableDroidBB.ttf / DJBCHALKITUP.TTF / DSMarkerFelt.ttf / EVILGREENPLANT.TTF / FFJUSTLEFTHAND-CAPS.OTF / FRANKLEINBOLD.TTF / FROMWHEREYOUARE.TTF / GENTIUMBASIC.TTF / HAPPYSANS.TTF / HELVETICANEUELT-ROMAN.TTF / hwfont.ttf / KGRedHands.ttf / PENCILPETEFONT.OTF / PROTOTYPE.TTF / QUADRAAT-BOLD.OTF / QUADRAAT-REGULAR.OTF / Roboto-Bold.ttf / Roboto-BoldItalic.ttf / Roboto-Medium.ttf / Roboto-MediumItalic.ttf / Roboto-Regular.ttf / SHPINSCHER-REGULAR.OTF / SUBWAYTICKER.TTF / TABORHANDWRITING.TTF / THROWMYHANDSUPINTHEAIRV2.TTF Video ID : 1 Format : HEVC Format/Info : High Efficiency Video Coding Format profile : Main 10@L5@High Codec ID : V_MPEGH/ISO/HEVC Duration : 23 min 42 s Bit rate : 3 385 kb/s Width : 1 920 pixels Height : 1 080 pixels Display aspect ratio : 16:9 Frame rate mode : Constant Frame rate : 23.976 (24000/1001) FPS Color space : YUV Chroma subsampling : 4:2:0 Bit depth : 10 bits Bits/(Pixel*Frame) : 0.068 Stream size : 574 MiB (82%) Title : YURASUKA 1080p x265 Writing library : x265 3.5:[Linux][GCC 11.2.0][64 bit] 10bit Encoding settings : cpuid=1111039 / frame-threads=4 / numa-pools=24 / wpp / no-pmode / no-pme / no-psnr / no-ssim / log-level=2 / input-csp=1 / input-res=1920x1080 / interlace=0 / total-frames=0 / level-idc=0 / high-tier=1 / uhd-bd=0 / ref=6 / no-allow-non-conformance / no-repeat-headers / annexb / no-aud / no-hrd / info / hash=0 / no-temporal-layers / open-gop / min-keyint=1 / keyint=360 / gop-lookahead=0 / bframes=16 / b-adapt=2 / b-pyramid / bframe-bias=0 / rc-lookahead=72 / lookahead-slices=4 / scenecut=40 / hist-scenecut=0 / radl=0 / no-splice / no-intra-refresh / ctu=32 / min-cu-size=8 / rect / amp / max-tu-size=32 / tu-inter-depth=4 / tu-intra-depth=4 / limit-tu=0 / rdoq-level=2 / dynamic-rd=4.00 / no-ssim-rd / signhide / tskip / nr-intra=0 / nr-inter=0 / no-constrained-intra / strong-intra-smoothing / max-merge=3 / limit-refs=3 / limit-modes / me=3 / subme=7 / merange=57 / temporal-mvp / no-frame-dup / no-hme / weightp / weightb / no-analyze-src-pics / deblock=0:0 / no-sao / no-sao-non-deblock / rd=4 / selective-sao=0 / no-early-skip / rskip / no-fast-intra / no-tskip-fast / no-cu-lossless / b-intra / no-splitrd-skip / rdpenalty=0 / psy-rd=2.00 / psy-rdoq=2.00 / no-rd-refine / no-lossless / cbqpoffs=0 / crqpoffs=0 / rc=crf / crf=16.0 / qcomp=0.72 / qpstep=4 / stats-write=0 / stats-read=0 / vbv-maxrate=15000 / vbv-bufsize=30000 / vbv-init=0.9 / min-vbv-fullness=50.0 / max-vbv-fullness=80.0 / crf-max=0.0 / crf-min=0.0 / ipratio=1.40 / pbratio=1.30 / aq-mode=3 / aq-strength=0.85 / cutree / zone-count=0 / no-strict-cbr / qg-size=32 / no-rc-grain / qpmax=69 / qpmin=0 / no-const-vbv / sar=0 / overscan=0 / videoformat=5 / range=0 / colorprim=1 / transfer=1 / colormatrix=1 / chromaloc=0 / display-window=0 / cll=0,0 / min-luma=0 / max-luma=1023 / log2-max-poc-lsb=8 / vui-timing-info / vui-hrd-info / slices=1 / no-opt-qp-pps / no-opt-ref-list-length-pps / no-multi-pass-opt-rps / scenecut-bias=0.05 / hist-threshold=0.03 / no-opt-cu-delta-qp / no-aq-motion / no-hdr10 / no-hdr10-opt / no-dhdr10-opt / no-idr-recovery-sei / analysis-reuse-level=0 / analysis-save-reuse-level=0 / analysis-load-reuse-level=0 / scale-factor=0 / refine-intra=0 / refine-inter=0 / refine-mv=1 / refine-ctu-distortion=0 / no-limit-sao / ctu-info=0 / no-lowpass-dct / refine-analysis-type=0 / copy-pic=1 / max-ausize-factor=1.0 / no-dynamic-refine / no-single-sei / no-hevc-aq / no-svt / no-field / qp-adaptation-range=1.00 / scenecut-aware-qp=0conformance-window-offsets / right=0 / bottom=0 / decoder-max-rate=0 / no-vbv-live-multi-pass Language : Japanese Default : Yes Forced : No Color range : Limited Color primaries : BT.709 Transfer characteristics : BT.709 Matrix coefficients : BT.709 Audio ID : 2 Format : FLAC Format/Info : Free Lossless Audio Codec Codec ID : A_FLAC Duration : 23 min 42 s Bit rate mode : Variable Bit rate : 614 kb/s Channel(s) : 2 channels Channel layout : L R Sampling rate : 48.0 kHz Frame rate : 10.417 FPS (4608 SPF) Bit depth : 16 bits Compression mode : Lossless Stream size : 104 MiB (15%) Title : Japanese FLAC 2.0 Writing library : Lavf60.3.100 Language : Japanese Default : Yes Forced : No MD5 of the unencoded content : 31EBBEACF63B6753AACDA688FCA37961 Text #1 Format : ASS Title : English Subtitles [Okay-Subs] Language : English Default : Yes Forced : No Text #2 Format : ASS Title : English Subtitles [/a/nonymous] Language : English Default : No Forced : No Text #3 Format : PGS Title : Japanese Subtitles (JPBD) Language : Japanese Default : No Forced : No Menu 00:00:00.000 : en:Intro 00:01:21.999 : en:Opening 00:02:52.047 : en:Part A 00:07:43.046 : en:Eyecatch 1 00:07:47.050 : en:Eyecatch 2 00:07:51.054 : en:Part B 00:13:56.878 : en:Eyecatch 3 00:14:00.882 : en:Part C 00:21:45.054 : en:Ending 00:23:15.019 : en:Outro 00:23:36.040 : en:Endcard ``` Dead end for a sucker that’s a sucker like me. 私のようなカモの行き止まりです。

File list

  • Im.Now.Your.Sister.S01.1080p.BluRay.10-Bit.FLAC2.0.x265-YURASUKA
    • Im.Now.Your.Sister.S01E01.1080p.BluRay.10-Bit.FLAC2.0.x265-YURASUKA.mkv (598.2 MiB)
    • Im.Now.Your.Sister.S01E02.1080p.BluRay.10-Bit.FLAC2.0.x265-YURASUKA.mkv (660.7 MiB)
    • Im.Now.Your.Sister.S01E03.1080p.BluRay.10-Bit.FLAC2.0.x265-YURASUKA.mkv (561.5 MiB)
    • Im.Now.Your.Sister.S01E04.1080p.BluRay.10-Bit.FLAC2.0.x265-YURASUKA.mkv (697.9 MiB)
    • Im.Now.Your.Sister.S01E05.1080p.BluRay.10-Bit.FLAC2.0.x265-YURASUKA.mkv (616.0 MiB)
    • Im.Now.Your.Sister.S01E06.1080p.BluRay.10-Bit.FLAC2.0.x265-YURASUKA.mkv (624.5 MiB)
    • Im.Now.Your.Sister.S01E07.1080p.BluRay.10-Bit.FLAC2.0.x265-YURASUKA.mkv (596.5 MiB)
    • Im.Now.Your.Sister.S01E08.1080p.BluRay.10-Bit.FLAC2.0.x265-YURASUKA.mkv (564.6 MiB)
    • Im.Now.Your.Sister.S01E09.1080p.BluRay.10-Bit.FLAC2.0.x265-YURASUKA.mkv (628.4 MiB)
    • Im.Now.Your.Sister.S01E10.1080p.BluRay.10-Bit.FLAC2.0.x265-YURASUKA.mkv (644.5 MiB)
    • Im.Now.Your.Sister.S01E11.1080p.BluRay.10-Bit.FLAC2.0.x265-YURASUKA.mkv (561.8 MiB)
    • Im.Now.Your.Sister.S01E12.1080p.BluRay.10-Bit.FLAC2.0.x265-YURASUKA.mkv (641.3 MiB)
Thanks! Now I can see what all the fuss was about.

eli

User
looks breddy good