[neoDESU] Is It Wrong to Try to Pick Up Girls in a Dungeon [Season 4 Part 1 + 2 + Recap] [BD 1080p x265 HEVC OPUS AAC] [Dual Audio] Dungeon ni Deai wo Motomeru no wa Machigatteiru Darou ka (Shin Shou - Meikyuu-hen Fuka Shou - Yakusai-hen) / DanMachi

Category:
Date:
2023-07-01 12:35 UTC
Submitter:
Seeders:
16
Information:
Leechers:
3
File size:
7.6 GiB
Completed:
1198
Info hash:
775206f149c803321917726c84d5886085cfdfec
![](https://i.lensdump.com/i/6BKULK.png) *Come hang out in **[Discord](https://discord.gg/47Q7FdB54e)*** #### **[Is It Wrong to Try to Pick Up Girls in a Dungeon? [Season 4 Part 1]](https://myanimelist.net/anime/47164/Dungeon_ni_Deai_wo_Motomeru_no_wa_Machigatteiru_Darou_ka_IV__Shin_Shou_-_Meikyuu-hen)** #### **[Is It Wrong to Try to Pick Up Girls in a Dungeon? [Season 4 Part 2]](https://myanimelist.net/anime/53111/Dungeon_ni_Deai_wo_Motomeru_no_wa_Machigatteiru_Darou_ka_IV__Fuka_Shou_-_Yakusai-hen)** #### **[Is It Wrong to Try to Pick Up Girls in a Dungeon? Play Back [Season 4 Recap]](https://myanimelist.net/anime/52357/Dungeon_ni_Deai_wo_Motomeru_no_wa_Machigatteiru_Darou_ka_IV_Episode_0)** ▶️ **[Trailer](https://www.youtube.com/watch?v=nWe7RTY5MqI)** --- **Notes:** *Season 4 Part 2* . Created styled OP & ED *Season 4 Recap* . Resampled script . Simple styling of OP . Adjusted style like season 4 part 1 episodes . Inserted signs and ED song from season 4 part 1 episodes . Created chapters --- **Related Uploads:** ▶️ **[Season 2 OVA](https://nyaa.si/view/1299294)** ▶️ **[Season 3](https://nyaa.si/view/1369942)** --- **Synopsis** Intrepid adventurer Bell Cranel has leveled up, but he can’t rest on his dungeoneering laurels just yet. The Hestia Familia still has a long way to go before it can stand toe-to-toe with the other Familias of Orario — but before Bell can set out on his next mission, reports of a brutal murder rock the adventuring community! One of Bell’s trusted allies stands accused of the horrible crime, and it’s up to Bell and his friends to clear their name and uncover a nefarious plot brewing in the dungeon’s dark depths. ![](https://i.imgur.com/ivAW8ta.png) --- **Language Options** I included two simple scripts that you can apply to these files to do the following (Windows only): 1. Make [Single Audio] Japanese: Throws out *English audio* and *Signs&Songs subtitles* tracks 2. Make [Single Audio] English: Throws out *Japanese audio* and *Dialogue subtitles* tracks To apply these put all the video files into the *Language Options* folder and run the .bat file. *Don't combine them and only use them once together with the base files.* --- **Source** *Season 4 Part 1* 🗃️ Video and JPN Audio (JPN BDMV): **[[KoushinRip]](https://nyaa.si/view/1628388)** 🗃️ ENG Audio (WEB): **[[Yameii]](https://nyaa.si/view/1581680)** 🗃️ Subtitles: **[[Z4ST1N]](https://nyaa.si/view/1557650)** 💬 *Subtitles Info: [Z4ST1N]* *Season 4 Part 2* 🗃️ Video and JPN Audio (JPN BDMV): **[[KoushinRip]](https://nyaa.si/view/1665805)** 🗃️ ENG Audio (WEB): **[[Yameii]](https://nyaa.si/view/1662817)** 🗃️ Subtitles: **[[Ryuu]](https://nyaa.si/view/1664379)** 💬 *Subtitles Info: [Ryuu] Base [Me] Edits, see notes* *Season 4 Recap* 🗃️ Video, JPN Audio and Subtitles (WEB): **[[Erai-raws]](https://nyaa.si/view/1550487)** 🗃️ ENG Audio (WEB): **[[Yameii]](https://nyaa.si/view/1581680)** 💬 *Subtitles Info: [Erai-raws] Base [Me] Edits, see notes* *Thank you all for making this possible <3* --- **Media Info** 🆔 **[Full Mediainfo incl. Encoder Settings](https://pastebin.com/CgbMqPLM)** ``` General Unique ID : 57432998256987004129484910960512330847 (0x2B35316FE9BB7B1840E5674B1BEBEC5F) Complete name : Is It Wrong to Try to Pick Up Girls in a Dungeon - S04E01.mkv Format : Matroska Format version : Version 4 File size : 250 MiB Duration : 23 min 42 s Overall bit rate : 1 475 kb/s Movie name : Is It Wrong to Try to Pick Up Girls in a Dungeon - S04E01 Encoded date : UTC 2023-02-04 14:06:53 Writing application : mkvmerge v72.0.0 ('Minuano (Six-eight)') 64-bit Writing library : libebml v1.4.4 + libmatroska v1.7.1 Attachments : Cabin-PL-Bold.ttf / BKANT.TTF / KozMinPro-Heavy.otf / Cabin-PL-BoldItalic.ttf / GARNB.TTF / Mercurius CT Std Medium.otf Video ID : 1 Format : HEVC Format/Info : High Efficiency Video Coding Format profile : Main 10@L4@High Codec ID : V_MPEGH/ISO/HEVC Duration : 23 min 42 s Bit rate : 1 126 kb/s Width : 1 920 pixels Height : 1 080 pixels Display aspect ratio : 16:9 Frame rate mode : Constant Frame rate : 23.976 (24000/1001) FPS Color space : YUV Chroma subsampling : 4:2:0 (Type 0) Bit depth : 10 bits Bits/(Pixel*Frame) : 0.023 Stream size : 191 MiB (76%) Writing library : x265 3.5+1-f0c1022b6:[Windows][GCC 10.2.0][64 bit] 10bit Encoding settings : <Check Link Above> Default : Yes Forced : No Color range : Limited Color primaries : BT.709 Transfer characteristics : BT.709 Matrix coefficients : BT.709 Audio #1 ID : 2 Format : AAC LC Format/Info : Advanced Audio Codec Low Complexity Codec ID : A_AAC-2 Duration : 23 min 40 s Bit rate : 197 kb/s Channel(s) : 2 channels Channel layout : L R Sampling rate : 48.0 kHz Frame rate : 46.875 FPS (1024 SPF) Compression mode : Lossy Stream size : 33.4 MiB (13%) Title : English Language : English Default : Yes Forced : No Audio #2 ID : 3 Format : AAC LC Format/Info : Advanced Audio Codec Low Complexity Codec ID : A_AAC-2 Duration : 23 min 42 s Bit rate : 121 kb/s Channel(s) : 2 channels Channel layout : L R Sampling rate : 48.0 kHz Frame rate : 46.875 FPS (1024 SPF) Compression mode : Lossy Stream size : 20.4 MiB (8%) Title : Japanese Language : Japanese Default : No Forced : No Text #1 ID : 4 Format : ASS Codec ID : S_TEXT/ASS Codec ID/Info : Advanced Sub Station Alpha Duration : 20 min 51 s Bit rate : 785 b/s Frame rate : 0.497 FPS Count of elements : 622 Compression mode : Lossless Stream size : 120 KiB (0%) Title : Signs & Songs Language : English Default : No Forced : Yes Text #2 ID : 5 Format : ASS Codec ID : S_TEXT/ASS Codec ID/Info : Advanced Sub Station Alpha Duration : 23 min 30 s Bit rate : 848 b/s Frame rate : 0.723 FPS Count of elements : 1019 Compression mode : Lossless Stream size : 146 KiB (0%) Title : Dialogue Language : English Default : Yes Forced : No Menu 00:00:00.000 : :Intro 00:02:53.030 : :Episode 00:23:36.060 : :Preview ```

File list

  • [neoDESU] Is It Wrong to Try to Pick Up Girls in a Dungeon [Season 4 Part 1 + 2 + Recap] [BD 1080p x265 HEVC OPUS AAC] [Dual Audio]
    • Language Options
      • 1. Make [Single Audio] English.bat (254 Bytes)
      • 2. Make [Single Audio] Japanese.bat (254 Bytes)
      • mkvmerge.exe (9.6 MiB)
      • readme.txt (511 Bytes)
    • Season 4
      • Is It Wrong to Try to Pick Up Girls in a Dungeon - S04E01.mkv (250.0 MiB)
      • Is It Wrong to Try to Pick Up Girls in a Dungeon - S04E02.mkv (314.6 MiB)
      • Is It Wrong to Try to Pick Up Girls in a Dungeon - S04E03.mkv (312.2 MiB)
      • Is It Wrong to Try to Pick Up Girls in a Dungeon - S04E04.mkv (370.9 MiB)
      • Is It Wrong to Try to Pick Up Girls in a Dungeon - S04E05.mkv (439.4 MiB)
      • Is It Wrong to Try to Pick Up Girls in a Dungeon - S04E06.mkv (280.8 MiB)
      • Is It Wrong to Try to Pick Up Girls in a Dungeon - S04E07.mkv (265.4 MiB)
      • Is It Wrong to Try to Pick Up Girls in a Dungeon - S04E08.mkv (289.6 MiB)
      • Is It Wrong to Try to Pick Up Girls in a Dungeon - S04E09.mkv (352.1 MiB)
      • Is It Wrong to Try to Pick Up Girls in a Dungeon - S04E10.mkv (298.3 MiB)
      • Is It Wrong to Try to Pick Up Girls in a Dungeon - S04E11.mkv (386.1 MiB)
      • Is It Wrong to Try to Pick Up Girls in a Dungeon - S04E12.mkv (503.3 MiB)
      • Is It Wrong to Try to Pick Up Girls in a Dungeon - S04E13.mkv (359.7 MiB)
      • Is It Wrong to Try to Pick Up Girls in a Dungeon - S04E14.mkv (447.8 MiB)
      • Is It Wrong to Try to Pick Up Girls in a Dungeon - S04E15.mkv (270.5 MiB)
      • Is It Wrong to Try to Pick Up Girls in a Dungeon - S04E16.mkv (285.9 MiB)
      • Is It Wrong to Try to Pick Up Girls in a Dungeon - S04E17.mkv (286.9 MiB)
      • Is It Wrong to Try to Pick Up Girls in a Dungeon - S04E18.mkv (319.5 MiB)
      • Is It Wrong to Try to Pick Up Girls in a Dungeon - S04E19.mkv (353.4 MiB)
      • Is It Wrong to Try to Pick Up Girls in a Dungeon - S04E20.mkv (292.0 MiB)
      • Is It Wrong to Try to Pick Up Girls in a Dungeon - S04E21.mkv (253.2 MiB)
      • Is It Wrong to Try to Pick Up Girls in a Dungeon - S04E22.mkv (352.3 MiB)
    • Specials
      • Is It Wrong to Try to Pick Up Girls in a Dungeon - S00E06 - [S04S01 Play Back].mkv (525.6 MiB)
Thank you so much for uploading both parts of Season 4 in Dual Audio/English Dubbed! You're the best!
Gonna replace my current version with yours, Thanks!

neoborn (uploader)

User
![](https://i.imgur.com/IX3oOFy.png)
Thank you آپ بہت بہترین رپز کرتے ہیں
Arigato gozaimasu. BD release are always appreciated. 😊